новый адрес
Ссылка на приватное зеркало всего за 1$. Внимание количество ограничено!!!

iTunes

1+1

iTunes

мы

iTunes

1

iTunes

Чернобыль

iTunes

Ральф против интернета

Лицензия

ПШазам

Лицензия

Оно 2

Лицензия

30
pack

Вам бонус

ВАЖНО

!!Акция!!

Alien_RageХит недели

RePack

Resident Evil 21

ИГРА 18+

pack

RePack

jed

!!Акция!!

Alien_Rage

RePack

fifa19

RePack

Assassins Creed: Odyssey

RePack

NEED FOR SPEED™ PAYBACK

3 сезон

9 сезон

Бесстыжие 9 сезон

Все сериалы

все сериалы на PB.wtf

RePack

FAR CRY 5
Ребята, катастрофически не хватает 1900р. для оплаты серверов за Октябрь (всвязи с блокировками трафик упал в 3 раза), 1-2р., выручайте.
  

Yesterday / Yesterday (Дэнни Бойл) [2019, Мюзикл, фэнтези, мелодрама, комедия, музыка, BDRip-AVC от OlLanDGroup] DUB [Лицензия BD EUR] pb.wtf

Yesterday через торрент pb.wtf

Раздают: 3 [ 0 KB/s ]
Размер: 1.46 GB | Добавлен: 1 мес. 11 д. назад | Торрент скачан:87 раз
Скачать  

25-10-2019 06:33 Yesterday Скачать торрент  

Yesterday / Yesterday
Год выпуска: 2019
Страна: Великобритания, Россия, Китай
Жанр: Мюзикл, фэнтези, мелодрама, комедия, музыка
Продолжительность: 01:56:14
Перевод: Дублированный | Лицензия BD EUR
Субтитры: Русские (Forced, songs, 2 x full), английские

Режиссер: Дэнни Бойл


rating

В ролях: Химеш Патель, Лили Джеймс, Софи Ди Мартино, Эллиз Шаппелль, Мира Сайал, Гарри Мишель, Винсент Франклин, Джоэль Фрай, Майкл Киванука, Карма Суд

Описание: Еще месяц назад Джек был обычным неудачником. Теперь он суперзвезда, миллионы людей слушают его песни, билеты на концерты раскупаются за секунду. В чем секрет? Все просто. Джек - единственный человек в мире, кто помнит о существовании The Beatles.

Качество: BDRip-AVC
Формат: MKV

Видео: 720x302 (2.40:1), 23.976 fps, x264 ~1 348 kbps avg, 0.259 bit/pixel
Аудио: 48 kHz, AC3 Dolby Digital, 3/2 (L,C,R,l,r) + LFE ch, ~448 kbps | RUS (Лицензия)

Релиз от:
General
Unique ID : 226552191832704568133735100113100516084 (0xAA705D72102F9921B0ACA2E6E5A8AAF4)
Complete name : D:\OlLanDGroup\Yesterday.2019.BDRip(AVC).1.46Gb.OllanDGroup.mkv
Format : Matroska
Format version : Version 4
File size : 1.46 GiB
Duration : 1 h 56 min
Overall bit rate : 1 798 kb/s
Movie name : Yesterday.2019.BDRip(AVC).1.46Gb.OllanDGroup#Skandar#
Encoded date : UTC 2019-10-25 04:42:29
Writing application : mkvmerge v31.0.0 ('Dolores In A Shoestand') 64-bit
Writing library : libebml v1.3.6 + libmatroska v1.4.9

Video
ID : 1
Format : AVC
Format/Info : Advanced Video Codec
Format profile : High@L4.1
Format settings : CABAC / 10 Ref Frames
Format settings, CABAC : Yes
Format settings, ReFrames : 10 frames
Codec ID : V_MPEG4/ISO/AVC
Duration : 1 h 56 min
Bit rate : 1 348 kb/s
Width : 720 pixels
Height : 302 pixels
Display aspect ratio : 2.40:1
Frame rate mode : Constant
Frame rate : 23.976 (24000/1001) FPS
Color space : YUV
Chroma subsampling : 4:2:0
Bit depth : 8 bits
Scan type : Progressive
Bits/(Pixel*Frame) : 0.259
Stream size : 1.09 GiB (75%)
Title : Yesterday.2019.BDRip(AVC).1.46Gb.OllanDGroup#Skandar#
Writing library : x264 core 146 r2538 121396c
Encoding settings : cabac=1 / ref=10 / deblock=1:-3:-3 / analyse=0x3:0x133 / me=umh / subme=11 / psy=1 / psy_rd=0.97:0.05 / mixed_ref=1 / me_range=48 / chroma_me=1 / trellis=2 / 8x8dct=1 / cqm=0 / deadzone=21,11 / fast_pskip=0 / chroma_qp_offset=-3 / threads=6 / lookahead_threads=1 / sliced_threads=0 / nr=0 / decimate=0 / interlaced=0 / bluray_compat=0 / constrained_intra=0 / bframes=11 / b_pyramid=2 / b_adapt=2 / b_bias=0 / direct=3 / weightb=1 / open_gop=0 / weightp=2 / keyint=240 / keyint_min=23 / scenecut=40 / intra_refresh=0 / rc_lookahead=40 / rc=2pass / mbtree=0 / bitrate=1348 / ratetol=1.0 / qcomp=0.60 / qpmin=0 / qpmax=69 / qpstep=4 / cplxblur=20.0 / qblur=0.5 / vbv_maxrate=50000 / vbv_bufsize=62500 / nal_hrd=none / filler=0 / ip_ratio=1.40 / pb_ratio=1.30 / aq=1:1.00
Language : Russian
Default : Yes
Forced : No

Audio
ID : 2
Format : AC-3
Format/Info : Audio Coding 3
Commercial name : Dolby Digital
Codec ID : A_AC3
Duration : 1 h 56 min
Bit rate mode : Constant
Bit rate : 448 kb/s
Channel(s) : 6 channels
Channel layout : L R C LFE Ls Rs
Sampling rate : 48.0 kHz
Frame rate : 31.250 FPS (1536 SPF)
Bit depth : 16 bits
Compression mode : Lossy
Stream size : 372 MiB (25%)
Title : Dub [License]
Language : Russian
Service kind : Complete Main
Default : Yes
Forced : No

Text #1
ID : 3
Format : UTF-8
Codec ID : S_TEXT/UTF8
Codec ID/Info : UTF-8 Plain Text
Duration : 1 h 47 min
Bit rate : 13 b/s
Count of elements : 204
Stream size : 10.3 KiB (0%)
Title : Forced
Language : Russian
Default : Yes
Forced : Yes

Text #2
ID : 4
Format : UTF-8
Codec ID : S_TEXT/UTF8
Codec ID/Info : UTF-8 Plain Text
Duration : 1 h 51 min
Bit rate : 107 b/s
Count of elements : 2093
Stream size : 87.4 KiB (0%)
Title : Full
Language : Russian
Default : No
Forced : No

Text #3
ID : 5
Format : UTF-8
Codec ID : S_TEXT/UTF8
Codec ID/Info : UTF-8 Plain Text
Duration : 1 h 55 min
Bit rate : 79 b/s
Count of elements : 2244
Stream size : 67.1 KiB (0%)
Title : Full
Language : English
Default : No
Forced : No

Text #4
ID : 6
Format : UTF-8
Codec ID : S_TEXT/UTF8
Codec ID/Info : UTF-8 Plain Text
Duration : 1 h 55 min
Bit rate : 86 b/s
Count of elements : 2439
Stream size : 73.0 KiB (0%)
Title : SDH
Language : English
Default : No
Forced : No

Menu
00:00:00.000 : :Chapter 01
00:06:16.668 : :Chapter 02
00:11:19.679 : :Chapter 03
00:16:13.097 : :Chapter 04
00:21:28.287 : :Chapter 05
00:27:04.540 : :Chapter 06
00:33:31.885 : :Chapter 07
00:38:55.083 : :Chapter 08
00:45:53.250 : :Chapter 09
00:48:17.061 : :Chapter 10
00:56:24.339 : :Chapter 11
01:03:47.490 : :Chapter 12
01:09:16.486 : :Chapter 13
01:14:17.078 : :Chapter 14
01:19:04.615 : :Chapter 15
01:24:10.587 : :Chapter 16
01:31:51.923 : :Chapter 17
01:36:00.588 : :Chapter 18
01:40:03.247 : :Chapter 19
01:46:51.947 : :Chapter 20
pb.wtf



Скачать Yesterday через торрент https://c.radikal.ru/c20/1910/2b/842ae9931aad.png Скачать фильм Yesterday через торрент бесплантно в хорошем качестве Описание: Еще месяц назад Джек был обычным неудачником. Теперь он суперзвезда, миллионы людей слушают его песни, билеты на концерты ... 10 10 1
Info! Золотая раздача, скачанное не засчитывается.
Торрент: Зарегистрирован [2019-10-25 06:33] · скачан: 87 раз
Статус: √ проверено
Размер: 1.46 GB
Как cкачать? Как скачать Yesterday через торрент | qTorrent

% Раздел Тема Автор DL S | L
Фильмы 2019 [DVDrip, WEB-DLRip, HDrip] (DUB, MVO) [ 747 MB ] Yesterday / Yesterday [2019 Мюзикл музыка BDRip-AVC от OlLanDGroup] DUB [ BD EUR] Skandar2019 Скачать
2 | 0
Фильмы 2019 [DVDrip, WEB-DLRip, HDrip] (DUB, MVO) [ 2.18 GB ] Yesterday / Yesterday [2019 мюзикл музыка BDRip] - [] Twi7ter Скачать
21 | 0
Фильмы 2019 [DVDrip, WEB-DLRip, HDrip] (DUB, MVO) [ 1.46 GB ] Yesterday / Yesterday [2019 мюзикл музыка BDRip] - [] Twi7ter Скачать
9 | 4
Фильмы [HD 720p, 1080p] (Хороший звук DUB, MVO) [ 11.19 GB ] Yesterday / Yesterday [2019 Мюзикл музыка BDRip 1080p] DUB [] bober100 Скачать
10 | 0
Фильмы 2019 [DVDrip, WEB-DLRip, HDrip] (DUB, MVO) [ 746 MB ] Yesterday / Yesterday [2019 Мюзикл музыка BDRip] DUB [ BD EUR] bober100 Скачать
1 | 0
Фильмы 2019 [DVDrip, WEB-DLRip, HDrip] (DUB, MVO) [ 1.46 GB ] Yesterday / Yesterday [2019 Мюзикл музыка BDRip] DUB [ BD EUR] bober100 Скачать
3 | 0
Фильмы [HD 720p, 1080p] (Хороший звук DUB, MVO) [ 7.93 GB ] Yesterday / Yesterday [2019 Мюзикл музыка BDRip 720p] DUB [] bober100 Скачать
4 | 0
Отключить всю рекламу на сайте
    Дорогой пользователь! Огромная просьба, поблагодарите релизера, оцените раздачу и оставьте свои комментарий, если Вы скачали Yesterday через торрент бесплатно! Внесите свою лепту в развитие PiratBit!
    Комментировать посты могут только пользователи прошедшие не сложную регистрацию
    Показать сообщения:    

    Yesterday через торрент
    Скачать бесплатно Yesterday
    Yesterday скачать торрент
    Yesterday смотреть онлайн
    Cкачать фильм Yesterday бесплатно
    Yesterday скачать торрент в хорошем качестве
    Yesterday смотреть онлайн бесплатно в хорошем качестве


    Вы не можете начинать темы
    Вы не можете отвечать на сообщения
    Вы не можете редактировать свои сообщения
    Вы не можете удалять свои сообщения
    Вы не можете голосовать в опросах
    Вы не можете прикреплять файлы к сообщениям
    Вы можете скачивать файлы