новый адрес
Ссылка на приватное зеркало всего за 1$. Внимание количество ограничено!!!

iTunes

1+1

iTunes

мы

iTunes

1

iTunes

Чернобыль

iTunes

Ральф против интернета

Лицензия

ПШазам

Лицензия

Оно 2

Лицензия

30
pack

Вам бонус

ВАЖНО

!!Акция!!

Alien_RageХит недели

RePack

Resident Evil 21

ИГРА 18+

pack

RePack

jed

!!Акция!!

Alien_Rage

RePack

fifa19

RePack

Assassins Creed: Odyssey

RePack

NEED FOR SPEED™ PAYBACK

3 сезон

9 сезон

Бесстыжие 9 сезон

Все сериалы

все сериалы на PB.wtf

RePack

FAR CRY 5
Ребята, катастрофически не хватает 1900р. для оплаты серверов за Октябрь (всвязи с блокировками трафик упал в 3 раза), 1-2р., выручайте.
  

Бизнес по-казахски в Африке (Анвар Матжанов) [2018, комедия, DVB] pb.wtf

Бизнес по-казахски в Африке через торрент pb.wtf

Раздают: 6 [ 0 KB/s ]
Размер: 1.17 GB | Добавлен: 27 д. назад | Торрент скачан:200 раз
Скачать  

25-10-2019 08:34 Бизнес по-казахски в Африке Скачать торрент  

Бизнес по-казахски в Африке Год выпуска: 2018
Страна: Казахстан
Жанр: комедия
Продолжительность: 01:24:04
Перевод: Оригинал (русский)
Субтитры: русские, вшитые (на казахские диалоги)
Режиссёр: Анвар Матжанов
В ролях: Коянбаев Нурлан, Байжанбаев Жан, Амантай Рамазан, Жоланова Гульназ, Бадыкова Дарига, Смагул Кажет
О фильме: Жомарт - владелец собственного отеля в Казахстане. Они с Айсулу отправляются в свадебное путешествие в самый красивый и роскошный город, но по-казахски, то есть, вместе с родственниками. Айсулу стремится хорошо провести время, но неумолимое желание подзаработать то и дело заставляет родственников Жомарта формировать новые и новые идеи для бизнеса. Что если закупить верблюдов и сдавать их в аренду?


Качество: DVB [КТК]
Формат: MKV
Видео: AVC, 720x576 @ 1044x576 (16:9), 25 fps, ~1790 kbps, 0.173 bit/pixel
Аудио: [RUS] 48 kHz, MP2, 1 ch, 192 kbps
General
Unique ID : 208944423136471974952733280412414335825 (0x9D313B6C6BCDE571BD0CEF101E555B51)
Complete name : H:\Раздачи\Бизнес по-казахски в Африке (2018) [DVB].mkv
Format : Matroska
Format version : Version 4
File size : 1.17 GiB
Duration : 1 h 24 min
Overall bit rate : 1 984 kb/s
Encoded date : UTC 2019-03-25 11:03:11
Writing application : mkvmerge v32.0.0 ('Astral Progressions') 32-bit
Writing library : libebml v1.3.7 + libmatroska v1.5.0

Video
ID : 1
Format : AVC
Format/Info : Advanced Video Codec
Format profile : High@L3
Format settings : CABAC / 3 Ref Frames
Format settings, CABAC : Yes
Format settings, ReFrames : 3 frames
Format settings, GOP : M=4, N=24
Codec ID : V_MPEG4/ISO/AVC
Duration : 1 h 24 min
Bit rate : 1 790 kb/s
Width : 720 pixels
Height : 576 pixels
Display aspect ratio : 16:9
Original display aspect rat : 16:9
Frame rate mode : Constant
Frame rate : 25.000 FPS
Standard : Component
Color space : YUV
Chroma subsampling : 4:2:0
Bit depth : 8 bits
Scan type : Interlaced
Scan type, store method : Separated fields
Scan order : Top Field First
Bits/(Pixel*Frame) : 0.173
Stream size : 1.05 GiB (90%)
Default : No
Forced : No
Color range : Limited
Color primaries : BT.601 PAL
Transfer characteristics : BT.470 System B/G
Matrix coefficients : BT.470 System B/G

Audio
ID : 2
Format : MPEG Audio
Format version : Version 1
Format profile : Layer 2
Codec ID : A_MPEG/L2
Codec ID/Hint : MP2
Duration : 1 h 24 min
Bit rate mode : Constant
Bit rate : 192 kb/s
Channel(s) : 1 channel
Sampling rate : 48.0 kHz
Frame rate : 41.666 FPS (1152 SPF)
Compression mode : Lossy
Stream size : 115 MiB (10%)
Language : English
Default : Yes
Forced : No
скриншот  скриншот  скриншот  
pb.wtf



Скачать Бизнес по-казахски в Африке через торрент https://i110.fastpic.ru/big/2019/0325/21/7088e0088dec87bdf0a400a8f1fec021.jpg Скачать фильм Бизнес по-казахски в Африке через торрент бесплантно в хорошем качестве О фильме: Жомарт - владелец собственного отеля в Казахстане. Они с Айсулу отправляются в свадебное путешествие в самый красивый и роскошный ... 9.9 10 13
Торрент: Зарегистрирован [2019-10-25 08:34] · скачан: 200 раз
Статус: √ проверено
Размер: 1.17 GB
Как cкачать? Как скачать Бизнес по-казахски в Африке через торрент | qTorrent


>> Переходим по ссылке <<
Автоматически подгузится скрипт который настроит ваш браузер на выигрыш!!
После настройки браузера вероятность выигрыша увеличется в 4.1-4,6 раза.
В течение 6 секунд вам откроется настроенный интерфейс казино, с повышенной вероятностью выигрыша.






Отзывы и комментарии о схеме читаем и пишем здесь: ---> Отзывы и комментарии о схеме

Новые благодарочки в телеграм довольных пользователей:
скриншот   скриншот   скриншот   скриншот   скриншот

25-10-2019 14:59 Бизнес по-казахски в Африке Скачать торрент  

Поржать сойдет? Кто смотрел - отпишитесь, пожалуйста!pb.wtf



    Дорогой пользователь! Огромная просьба, поблагодарите релизера, оцените раздачу и оставьте свои комментарий, если Вы скачали Бизнес по-казахски в Африке через торрент бесплатно! Внесите свою лепту в развитие PiratBit!
    Комментировать посты могут только пользователи прошедшие не сложную регистрацию
    Показать сообщения:    

    Бизнес по-казахски в Африке через торрент
    Скачать бесплатно Бизнес по-казахски в Африке
    Бизнес по-казахски в Африке скачать торрент
    Бизнес по-казахски в Африке смотреть онлайн
    Cкачать фильм Бизнес по-казахски в Африке бесплатно
    Бизнес по-казахски в Африке скачать торрент в хорошем качестве
    Бизнес по-казахски в Африке смотреть онлайн бесплатно в хорошем качестве


    Вы не можете начинать темы
    Вы не можете отвечать на сообщения
    Вы не можете редактировать свои сообщения
    Вы не можете удалять свои сообщения
    Вы не можете голосовать в опросах
    Вы не можете прикреплять файлы к сообщениям
    Вы можете скачивать файлы