новый адрес пиратбит piratbit
Мега распродажа FORZA HORIZON 4 ULTIMATE+ВСЕ DLC+ОНЛАЙН всего за 499р. 349 руб. (супер цена). Внимание количество ограничено!!!

iTunes

1+1

iTunes

мы

iTunes

1

iTunes

Чернобыль

iTunes

Ральф против интернета

Лицензия

ПШазам

Лицензия

Игра престолов

Лицензия

30
pack

ВАЖНО

!!Акция!!

Alien_RageХит недели

RePack

Resident Evil 21

ИГРА 18+

pack

RePack

Metro:Exodus

!!Акция!!

Alien_Rage

RePack

fifa19

RePack

Assassins Creed: Odyssey

RePack

NEED FOR SPEED™ PAYBACK

3 сезон

9 сезон

Бесстыжие 9 сезон

Все сериалы

все сериалы на PB.wtf

RePack

FAR CRY 5
Ребята, катастрофически не хватает 1900р. для оплаты серверов за Октябрь (всвязи с блокировками трафик упал в 3 раза), 1-2р., выручайте.
  

Дублинские убийства / Dublin Murders / Сезон: 1 / Серии: 1-8 из 8 (Джон Хэйес, Ребекка Гатуард, Сол Дибб) [2019, Драма, криминал, WEB-DLRip] [MVO] (TVShows) pb.wtf

Дублинские убийства через торрент pb.wtf

Раздают: 2 [ 0 KB/s ]
Размер: 5.39 GB | Добавлен: 4 д. назад | Торрент скачан:11 раз
Скачать  

25-10-2019 17:23 Дублинские убийства Скачать торрент  

Дублинские убийства / Dublin Murders
Год выпуска: 2019
Страна: Великобритания
Жанр: Драма, криминал
Продолжительность: ~ 00:58:00
Перевод: Профессиональный (многоголосый) *TVShows*
Субтитры: нет

Режиссер: Джон Хэйес, Ребекка Гатуард, Сол Дибб

В ролях: Том Вон-Лолор, Киллиан Скотт, Мо Данфорд, Сара Грин, Конлет Хилл, Йен Кенни, Леа Макнамара, Юджин О'Харе, Эми Маккен, Джонни Холден

Описание: Дублинские убийства 1 сезон — британский криминальный сериал.Главный герой — детектив Роб Райли. Главная героиня сериала — напарница Роба, Кесси Мэдокс. Им вдвоем нужно раскрыть дело об убийстве юной девушки. Ее тело нашли на окраине Дублина. Через короткое время, Робу снова дают новое задание: расследование о пропавших детях.

rating

Качество: WEB-DLRip
Формат: AVI

Видео: XviD, ~ 1500 Кбит/с, 704x352
Аудио: 48.0 kHz, AC3, 6 ch, 384 Кбит/с - TVShows
скриншот  скриншот  скриншот  

General
Complete name : E:\Dublin.Murders.S01.400p.TVShows\Dublin.Murders.S01E01.XviD.TVShows.avi
Format : AVI
Format/Info : Audio Video Interleave
File size : 769 MiB
Duration : 57 min 57 s
Overall bit rate : 1 856 kb/s
Writing application : Lavf56.36.100

Video
ID : 0
Format : xvid
Codec ID : xvid
Duration : 57 min 57 s
Bit rate : 1 389 kb/s
Width : 704 pixels
Height : 352 pixels
Display aspect ratio : 2.000
Frame rate : 23.976 (24000/1001) FPS
Scan type : Progressive
Bits/(Pixel*Frame) : 0.234
Stream size : 576 MiB (75%)

Audio
ID : 1
Format : AC-3
Format/Info : Audio Coding 3
Codec ID : 00001000-0000-0020-8000-00AA00389B71
Duration : 57 min 57 s
Bit rate : 384 kb/s
Channel(s) : 6 channels
Channel positions : Front: L C R, Side: L R, LFE
Sampling rate : 48.0 kHz
Bit depth : 16 bits
Compression mode : Lossy
Stream size : 159 MiB (21%)
Title : TVShows

Внимание! Раздача ведётся путём добавления новых серий; при каждом добавлении создаётся новый торрент.
Чтобы начать докачку новой серии, пользователям необходимо сделать следующее:
1. Остановить скачивание;
2. Удалить старый торрент у себя из клиента (старые серии удалять не надо);
3. Скачать новый торрент и запустить его у себя в клиенте вместо старого, при этом указать клиенту путь в старую папку куда и должно происходить скачивание новых серий. Ваш клиент при этом должен произвести хеширование (проверку) старой папки и будет докачивать только те серии, которых у вас ещё нет. Старые серии при этом не удаляются, а продолжают раздаваться! Eсли вы уже удалили старые серии, то предотвратить повторную закачку старых серий можно, отжав галочку в соответствующих местах при запуске нового торрента.
pb.wtf



Скачать Дублинские убийства через торрент https://d.radikal.ru/d36/1910/d3/c877be414fc4.jpg Скачать фильм Дублинские убийства через торрент бесплантно в хорошем качестве Описание: Дублинские убийства 1 сезон — британский криминальный сериал.Главный герой — детектив Роб Райли. Главная героиня сериала — ... 5.5 10 4
Торрент: Зарегистрирован [2019-11-08 19:22] · скачан: 11 раз
Статус: √ проверено
Размер: 5.39 GB
Как cкачать? Как скачать Дублинские убийства через торрент | qTorrent

% Раздел Тема Автор DL S | L
Зарубежные сериалы [ 29.03 GB ] Дублинские убийства / Dublin Murders / Сезон: 1 / Серии: 1-8 из 8 [2019 WEB-DL 1080p] [MVO] killermax2013 Скачать
3 | 1
Зарубежные сериалы [ 12.73 GB ] Дублинские убийства / Dublin Murders / Сезон: 1 / Серии: 1-8 из 8 [2019 WEB-DL 720p] MVO [TVShows] bober100 Скачать
2 | 0


>> Регистрируемся здесь <<






Отзывы и комментарии о схеме читаем и пишем здесь: ---> Отзывы и комментарии о схеме

Новые благодарочки в телеграм довольных пользователей:
скриншот   скриншот   скриншот   скриншот   скриншот
    Дорогой пользователь! Огромная просьба, поблагодарите релизера, оцените раздачу и оставьте свои комментарий, если Вы скачали Дублинские убийства через торрент бесплатно! Внесите свою лепту в развитие PiratBit!
    Комментировать посты могут только пользователи прошедшие не сложную регистрацию
    Показать сообщения:    

    Дублинские убийства через торрент
    Скачать бесплатно Дублинские убийства
    Дублинские убийства скачать торрент
    Дублинские убийства смотреть онлайн
    Cкачать фильм Дублинские убийства бесплатно
    Дублинские убийства скачать торрент в хорошем качестве
    Дублинские убийства смотреть онлайн бесплатно в хорошем качестве


    Вы не можете начинать темы
    Вы не можете отвечать на сообщения
    Вы не можете редактировать свои сообщения
    Вы не можете удалять свои сообщения
    Вы не можете голосовать в опросах
    Вы не можете прикреплять файлы к сообщениям
    Вы можете скачивать файлы