Ссылка на приватное зеркало нашего сайта всего за 1$. Внимание количество ограничено!!!

2 сезон

iTunes

1 сезон

1

2 сезон

2 сезон

iTunes

1 сезон

RePack

30

Новинка

ВАЖНО

ИГРА 18+

pack

RePack

MK11
pack

Забери бонус

RePack

jed

!!Акция!!

Alien_Rage

RePack

fifa19

RePack

Assassins Creed: Odyssey

RePack

NEED FOR SPEED™ PAYBACK

4 сезон

9 сезон

Бесстыжие 9 сезон

Все сериалы

все сериалы на PB.wtf

RePack

FAR CRY 5
  

Сверх(НЕ)естественное / Extra Ordinary (Майк Ахерн, Энда Логман) [2019, Ужасы, фэнтези, комедия, BD Remux 1080p] DUB [iTunes] pb.wtf

Сверх через торрент pb.wtf

Размер: 24.24 GB | Добавлен: 1 год 1 мес. назад | Торрент скачан:11 раз
Скачать  

26-10-2019 10:02 Сверх Скачать торрент  

Сверх(НЕ)естественное / Extra Ordinary
Год выпуска: 2019
Страна: Ирландия, Бельгия
Жанр: Ужасы, фэнтези, комедия
Продолжительность: 01:34:20
Перевод: Дублированный | iTunes
Субтитры: Русские (Full)

Режиссер: Майк Ахерн, Энда Логман

rating

В ролях: Маив Хиггинс, Бэрри Уорд, Уилл Форте, Клаудия О’Доэрти, Джэми Бимиш, Терри Чандлер, Ристерд Купер, Эмма Коулман, Кэрри Краули, Мэри МакЭвой, Сара О'Фаррелл, Агата Эллис, Валери О’Коннор

Описание: Скромная Роуз обладает экстрасенсорными способностями, но соседи достают ее лишь просьбами изгнать духов надоедливых родственников. Однажды в ее родном городке объявляется рок-звезда Кристиан Уинтер. Наделенный дьявольской силой, он околдовывает местную девушку, и ее отец в отчаянии просит Роуз о помощи. У героини появляется шанс раскрыть свой дар, а заодно устроить личную жизнь.

Качество: BD Remux 1080p
Формат: MKV

Видео: MPEG-4 AVC, 1920x1080, 32.9 Mbit/s, 24 fps
Аудио#1: 48 kHz, AC3, 5.1, 384 Kbps | iTunes | RUS |
Аудио#2: 48 kHz, DTS-HD MA, 5.1, 3528 Kbps | Оригинал | ENG |
скриншот  скриншот  скриншот  скриншот  скриншот  

General
Unique ID : 256431530021246114486745977453177862797 (0xC0EAEA8E6574777FE2D3CFDDBC35FA8D)
Complete name : D:Video111Extra.Ordinary.2019.BDREMUX.1080p.seleZen.mkv
Format : Matroska
Format version : Version 4
File size : 24.2 GiB
Duration : 1 h 34 min
Overall bit rate mode : Variable
Overall bit rate : 36.8 Mb/s
Movie name : Extra Ordinary 2019 from селезень
Encoded date : UTC 2019-10-26 09:39:05
Writing application : mkvmerge v22.0.0 ('At The End Of The World') 64-bit
Writing library : libebml v1.3.5 + libmatroska v1.4.8

Video
ID : 1
Format : AVC
Format/Info : Advanced Video Codec
Format profile : High@L4.1
Format settings : CABAC / 4 Ref Frames
Format settings, CABAC : Yes
Format settings, Reference : 4 frames
Codec ID : V_MPEG4/ISO/AVC
Duration : 1 h 34 min
Bit rate mode : Variable
Bit rate : 32.9 Mb/s
Maximum bit rate : 36.0 Mb/s
Width : 1 920 pixels
Height : 1 080 pixels
Display aspect ratio : 16:9
Frame rate mode : Constant
Frame rate : 24.000 FPS
Color space : YUV
Chroma subsampling : 4:2:0
Bit depth : 8 bits
Scan type : Progressive
Bits/(Pixel*Frame) : 0.660
Stream size : 21.7 GiB (89%)
Language : German
Default : Yes
Forced : No

Audio #1
ID : 2
Format : AC-3
Format/Info : Audio Coding 3
Commercial name : Dolby Digital
Codec ID : A_AC3
Duration : 1 h 34 min
Bit rate mode : Constant
Bit rate : 384 kb/s
Channel(s) : 6 channels
Channel layout : L R C LFE Ls Rs
Sampling rate : 48.0 kHz
Frame rate : 31.250 FPS (1536 SPF)
Bit depth : 16 bits
Compression mode : Lossy
Stream size : 259 MiB (1%)
Title : iTunes
Language : Russian
Service kind : Complete Main
Default : Yes
Forced : Yes

Audio #2
ID : 3
Format : DTS XLL
Format/Info : Digital Theater Systems
Commercial name : DTS-HD Master Audio
Codec ID : A_DTS
Duration : 1 h 34 min
Bit rate mode : Variable
Bit rate : 3 528 kb/s
Channel(s) : 6 channels
Channel layout : C L R Ls Rs LFE
Sampling rate : 48.0 kHz
Frame rate : 93.750 FPS (512 SPF)
Bit depth : 24 bits
Compression mode : Lossless
Stream size : 2.33 GiB (10%)
Title : Original
Language : English
Default : No
Forced : No

Text
ID : 4
Format : UTF-8
Codec ID : S_TEXT/UTF8
Codec ID/Info : UTF-8 Plain Text
Duration : 1 h 29 min
Bit rate : 118 b/s
Count of elements : 1207
Stream size : 77.3 KiB (0%)
Title : Full
Language : Russian
Default : No
Forced : No

Menu
00:00:00.000 : de:00:00:00.000
00:10:08.542 : de:00:10:08.542
00:20:12.667 : de:00:20:12.667
00:28:46.500 : de:00:28:46.500
00:36:38.958 : de:00:36:38.958
00:46:45.250 : de:00:46:45.250
00:57:59.292 : de:00:57:59.292
01:06:36.542 : de:01:06:36.542
01:17:14.750 : de:01:17:14.750
01:28:53.458 : de:01:28:53.458

pb.wtf



Скачать Сверх через торрент https://c.radikal.ru/c11/1910/0e/a6e543baed2a.jpg Скачать фильм Сверхчерез торрент бесплантно в хорошем качестве Описание: Скромная Роуз обладает экстрасенсорными способностями, но соседи достают ее лишь просьбами изгнать духов надоедливых ... 10 10 3
Торрент: Зарегистрирован [2019-10-26 10:02] · скачан: 11 раз
Статус: √ проверено
Размер: 24.24 GB
Как cкачать? Как скачать Сверх через торрент | qTorrent

% Раздел Тема Автор DL S | L
Старые игры [ 261 MB ] Counter-Strike 1.6 [Сверх новая cs 2014] [Repack RU/EN Action Shooter FPS] serega-krik Скачать
4 | 0
Сверхъестественное (Supernatural) [ 10.06 GB ] Сверхъестественное / Supernatural / Сезон: 13 / Серии 1-23 из 23 [2017 WEB-DLRip] MVO [LostFilm] GEKADOL Скачать
1 | 0
Сверхъестественное (Supernatural) [ 12.45 GB ] Сверхъестественное / Supernatural / Сезон: 3 / Серии 1-16 из 16 [2007 BDRip-AVC] DUB [Рен-ТВ] winchester00100010 Скачать
2 | 0
Сверхъестественное (Supernatural) [ 15.76 GB ] Сверхъестественное / Supernatural / Сезон: 2 / Серии 1-22 из 22 [2006 HDRip-AVC] DUB [Рен-ТВ] winchester00100010 Скачать
1 | 0
Сверхъестественное (Supernatural) [ 20.9 GB ] Сверхъестественное / Supernatural / Сезон: 1 / Серии 1-22 из 22 [2005 HDRip-AVC] DUB [Рен-ТВ] winchester00100010 Скачать
1 | 0
Сверхъестественное (Supernatural) [ 15.87 GB ] Сверхъестественное / Supernatural / Сезон: 5 / Серии 1-22 из 22 [2009 HDRip-AVC DUB ] winchester00100010 Скачать
1 | 0
Сверхъестественное (Supernatural) [ 76.57 GB ] Сверхъестественное / Supernatural / Сезон: 13 / Серии 1-23 из 23 [2017-2018 . WEBRip 1080p] [MVO] killermax2013 Скачать
1 | 0

28-11-2019 20:33  

Отключить всю рекламу на сайте

    Дорогой пользователь! Огромная просьба, поблагодарите релизера, оцените раздачу и оставьте свои комментарий, если Вы скачали Сверх через торрент бесплатно! Внесите свою лепту в развитие PiratBit!
    Комментировать посты могут только пользователи прошедшие не сложную регистрацию
    Показать сообщения:    

    Сверх через торрент
    Скачать бесплатно Сверх
    Сверх скачать торрент
    Сверх смотреть онлайн
    Cкачать фильм Сверх бесплатно
    Сверх скачать торрент в хорошем качестве
    Сверх смотреть онлайн бесплатно в хорошем качестве


    Вы не можете начинать темы
    Вы не можете отвечать на сообщения
    Вы не можете редактировать свои сообщения
    Вы не можете удалять свои сообщения
    Вы не можете голосовать в опросах
    Вы не можете прикреплять файлы к сообщениям
    Вы можете скачивать файлы