1 сезон

1 сезон

iTunes

1

КиноПоиск HD

Кинопоиск HD

iTunes

13

1 сезон

RePack

30

Ultimate

ВАЖНО

ИГРА 18+

pack

RePack

MK11
pack

Легкие деньги

RePack

jed

RePack

fifa19

RePack

RDR2

RePack

NEED FOR SPEED™ PAYBACK

4 сезон

9 сезон

Бесстыжие 9 сезон

Все сериалы

все сериалы на PB.wtf

RePack

FAR CRY 5
  
Magnet ссылка

Шоссе 666 / Route 666 (Уильям Уэсли / William Wesley) [2001 г., ужасы, боевик, дорожный триллер, DVDRip, Профессиональный (многоголосый, закадровый) pb.wtf

Шоссе 666 через торрент pb.wtf

Раздают: 1 [ 0 KB/s ]
Размер: 1.37 GB | Добавлен: 1 год 5 мес. назад | Торрент скачан:18 раз
Скачать  

26-10-2019 12:07 Шоссе 666 Скачать торрент  

Шоссе 666 / Route 666
Год выпуска: 2001
Страна: США
Жанр: ужасы, боевик, дорожный триллер
Продолжительность: 01:26:24
Перевод: Профессиональный (многоголосый, закадровый)
Субтитры: Отсутствуют

Режиссер: Уильям Уэсли / William Wesley

Бюджет: $2 300 000
Премьера в мире: 30 октября 2001

rating

В ролях: Лу Даймонд Филлипс, Лори Петти, Стивен Уильямс, Дэйл Мидкифф, Л.К. Джонс, Алекс МакАртур, Мерседес Колон, Роб Рой Фицджералд, Адам Вернье, Честер Э. Трип III

Описание: Заброшенный участок старого шоссе пользуется у местных жителей дурной славой: много лет назад здесь была жестоко убита группа заключенных, работавших на строительстве дороги. Теперь два агента ФБР преследуют здесь беглеца, скрывающегося и от них, и от мафии. Но на пути у всех участников погони встают поднявшиеся из могил мертвецы, жаждущие отомстить за свое убийство.

Качество: DVDRip
Формат: AVI
Видео кодек: XviD
Аудио кодек: AC3
Видео: 720x304 (2.37:1), 25 fps, XviD 1.2 beta 1 (build 43) ~1804 kbps avg, 0.33 bit/pixel
Аудио#1: 48 kHz, AC3 Dolby Digital, 3/2 (L,C,R,l,r) + LFE ch, ~448 kbps
скриншот   скриншот   скриншот   скриншот   скриншот   скриншот   скриншот   скриншот  

General
Complete name : F:\Раздача\Шоссе 666 (2001).avi
Format : AVI
Format/Info : Audio Video Interleave
File size : 1.37 GiB
Duration : 1 h 26 min
Overall bit rate : 2 262 kb/s
Movie name : Route 666 (2001)
Director : encoded by WIDOK
Writing application : VirtualDubMod 1.5.10.2 (build 2542/release)
Copyright : 11-2008

Video
ID : 0
Format : MPEG-4 Visual
Format profile : Advanced Simple@L5
Format settings : BVOP1
Format settings, BVOP : 1
Format settings, QPel : No
Format settings, GMC : No warppoints
Format settings, Matrix : Default (MPEG)
Codec ID : XVID
Codec ID/Hint : XviD
Duration : 1 h 26 min
Bit rate : 1 804 kb/s
Width : 720 pixels
Height : 304 pixels
Display aspect ratio : 2.35:1
Frame rate : 25.000 FPS
Color space : YUV
Chroma subsampling : 4:2:0
Bit depth : 8 bits
Scan type : Progressive
Compression mode : Lossy
Bits/(Pixel*Frame) : 0.330
Stream size : 1.09 GiB (80%)
Writing library : XviD 1.2.0SMP (UTC 2006-01-08)

Audio
ID : 1
Format : AC-3
Format/Info : Audio Coding 3
Commercial name : Dolby Digital
Codec ID : 2000
Duration : 1 h 26 min
Bit rate mode : Constant
Bit rate : 448 kb/s
Channel(s) : 6 channels
Channel layout : L R C LFE Ls Rs
Sampling rate : 48.0 kHz
Frame rate : 31.250 FPS (1536 SPF)
Compression mode : Lossy
Stream size : 277 MiB (20%)
Alignment : Split across interleaves
Interleave, duration : 40 ms (1.00 video frame)
Interleave, preload duratio : 500 ms
Service kind : Complete Main

pb.wtf



Скачать Шоссе 666 через торрент https://www.kinopoisk.ru/images/film_big/24207.jpg Скачать фильм Шоссе 666 через торрент бесплантно в хорошем качестве Описание: Заброшенный участок старого шоссе пользуется у местных жителей дурной славой: много лет назад здесь была жестоко убита группа ... 10 10 1
Торрент: Зарегистрирован [2019-10-26 12:07] · скачан: 18 раз
Статус: √ проверено
Размер: 1.37 GB
Как cкачать? Как скачать Шоссе 666 через торрент | UTorrent

% Раздел Тема Автор DL S | L
Фильмы (DVD фильмы) [ 4.26 GB ] Шоссе 666 / Route 666 [2001 DVD5] [DVO] killermax2013 Скачать
1 | 0

28-11-2019 20:33  

Отключить всю рекламу на сайте

    Дорогой пользователь! Огромная просьба, поблагодарите релизера, оцените раздачу и оставьте свои комментарий, если Вы скачали Шоссе 666 через торрент бесплатно! Внесите свою лепту в развитие PiratBit!
    Комментировать посты могут только пользователи прошедшие не сложную регистрацию
    Показать сообщения:    

    Шоссе 666 через торрент
    Скачать бесплатно Шоссе 666
    Шоссе 666 скачать торрент
    Шоссе 666 смотреть онлайн
    Cкачать фильм Шоссе 666 бесплатно
    Шоссе 666 скачать торрент в хорошем качестве
    Шоссе 666 смотреть онлайн бесплатно в хорошем качестве


    Вы не можете начинать темы
    Вы не можете отвечать на сообщения
    Вы не можете редактировать свои сообщения
    Вы не можете удалять свои сообщения
    Вы не можете голосовать в опросах
    Вы не можете прикреплять файлы к сообщениям
    Вы можете скачивать файлы