Ссылка на приватное зеркало нашего сайта всего за 1$. Внимание количество ограничено!!!

2 сезон

iTunes

1 сезон

1

iTunes

iTunes

iTunes

1 сезон

RePack

30

ИГРА 18+

pack

ВАЖНО

!!Акция!!

Alien_RageХит недели

RePack

MK11
pack

Забери бонус

RePack

jed

!!Акция!!

Alien_Rage

RePack

fifa19

RePack

Assassins Creed: Odyssey

RePack

NEED FOR SPEED™ PAYBACK

4 сезон

9 сезон

Бесстыжие 9 сезон

Все сериалы

все сериалы на PB.wtf

RePack

FAR CRY 5
  

След лисицы на камнях / Серии: 1-4 из 4 (Антон Павлючик) [2019, детектив, WEB-DLRip] pb.wtf

След лисицы на камнях через торрент pb.wtf

Размер: 2.73 GB | Добавлен: 11 мес. назад | Торрент скачан:62 раза
Скачать  

27-10-2019 02:04 След лисицы на камнях Скачать торрент  

След лисицы на камнях Год выпуска: 2019
Страна: Россия, Приор Продакшн
Жанр: детектив
Продолжительность: ~00:46:00 серия
Субтитры: отсутствуют

Режиссёр: Антон Павлючик




В ролях: Евгений Пронин, Алексей Вакулов, Светлана Смирнова-Кацагаджиева, Татьяна Казючиц, Евгений Славский, Евгений Иванов, Илья Савельев, Андрей Пынзару, Марина Старых, Евгений Филатов

Описание: Частных детективов Макара Илюшина и Сергея Бабкина нанимает Андрей Калашников — настоящий подвижник, который вложил все свое состояние и всю душу в полуразрушенный старинный терем в деревне Камышовка. После чего к нему явилась Вера Бакшаева, сестра бывшей владелицы, и заявила, что терем на самом деле принадлежал ей. Калашников потерял сознание, а очнувшись, увидел рядом труп Веры. В ужасе он закопал тело, но потом раскаялся и пришел в полицию с повинной, но Бакшаеву так и не нашли, ни живую, ни мертвую. Макар и Сергей начинают расследование и вскоре понимают, что жители Камышовки очень им не рады. А значит, им есть, что скрывать.

Качество: WEB-DLRip
Формат: AVI
Видео кодек: XviD
Аудио кодек: AC3

Видео: 720x400 (1.80:1), 25 fps, XviD build 73 ~1900 kbps avg, 0.264 bit/pixel
Аудио: 48.0 kHz, AC3 Dolby Digital, 2/0 (L,R) ch, ~ 192 kbps
General
Complete name : D:\Sled.lisici.na.kamniah.(2019).WEB-DLRip.ExKinoRay\Sled.lisici.na.kamniah.e01.(2019).WEB-DLRip.ExKinoRay.avi
Format : AVI
Format/Info : Audio Video Interleave
File size : 699 MiB
Duration : 46 min 27 s
Overall bit rate : 2 105 kb/s
Writing application : VirtualDubMod 1.5.10.3 | www.virtualdub-fr.org || (build 2550/release)
Writing library : VirtualDubMod build 2550/release

Video
ID : 0
Format : MPEG-4 Visual
Format profile : Advanced Simple@L5
Format settings : BVOP1 / Custom Matrix
Format settings, BVOP : 1
Format settings, QPel : No
Format settings, GMC : No warppoints
Format settings, Matrix : Custom
Codec ID : XVID
Codec ID/Hint : XviD
Duration : 46 min 27 s
Bit rate : 1 903 kb/s
Width : 720 pixels
Height : 400 pixels
Display aspect ratio : 16:9
Frame rate : 25.000 FPS
Color space : YUV
Chroma subsampling : 4:2:0
Bit depth : 8 bits
Scan type : Progressive
Compression mode : Lossy
Bits/(Pixel*Frame) : 0.264
Stream size : 632 MiB (90%)
Writing library : XviD 73

Audio
ID : 1
Format : AC-3
Format/Info : Audio Coding 3
Codec ID : 2000
Duration : 46 min 27 s
Bit rate mode : Constant
Bit rate : 192 kb/s
Channel(s) : 2 channels
Channel positions : Front: L R
Sampling rate : 48.0 kHz
Frame rate : 31.250 FPS (1536 SPF)
Bit depth : 16 bits
Compression mode : Lossy
Stream size : 63.8 MiB (9%)
Alignment : Split accross interleaves
Interleave, duration : 40 ms (1.00 video frame)
Interleave, preload duratio : 500 ms
Service kind : Complete Main
скриншот  скриншот  скриншот  скриншот  

скриншот  скриншот  скриншот  скриншот  
pb.wtf



Скачать След лисицы на камнях через торрент https://i91.fastpic.ru/big/2019/1026/b4/318732913af9df966a9731f1748a85b4.jpg Скачать фильм След лисицы на камнях через торрент бесплантно в хорошем качестве Описание: Частных детективов Макара Илюшина и Сергея Бабкина нанимает Андрей Калашников — настоящий подвижник, который вложил все свое ... 10 10 7
Торрент: Зарегистрирован [2019-10-27 02:04] · скачан: 62 раз
Статус: √ проверено
Размер: 2.73 GB
Как cкачать? Как скачать След лисицы на камнях через торрент | qTorrent

% Раздел Тема Автор DL S | L
Наши сериалы [ 3.55 GB ] След лисицы на камнях / Серии: 1-4 из 4 [2019 WEB-DL 720p] bober100 Скачать
1 | 0
Наши сериалы [ 2.82 GB ] След лисицы на камнях / Серии: 1-4 из 4 [2019 экранизация WEBRip-AVC] aleksan55 Скачать
1 | 0
Наши сериалы [ 2.3 GB ] След лисицы на камнях / Серии: 1-4 из 4 [2019 WEB-DLRip-AVC] bober100 Скачать
1 | 0
Наши сериалы [ 6.58 GB ] След лисицы на камнях / Серии: 1-4 из 4 [2019 WEB-DL 1080p] bober100 Скачать
1 | 0

28-11-2019 20:33  

Отключить всю рекламу на сайте

    Дорогой пользователь! Огромная просьба, поблагодарите релизера, оцените раздачу и оставьте свои комментарий, если Вы скачали След лисицы на камнях через торрент бесплатно! Внесите свою лепту в развитие PiratBit!
    Комментировать посты могут только пользователи прошедшие не сложную регистрацию
    Показать сообщения:    

    След лисицы на камнях через торрент
    Скачать бесплатно След лисицы на камнях
    След лисицы на камнях скачать торрент
    След лисицы на камнях смотреть онлайн
    Cкачать фильм След лисицы на камнях бесплатно
    След лисицы на камнях скачать торрент в хорошем качестве
    След лисицы на камнях смотреть онлайн бесплатно в хорошем качестве


    Вы не можете начинать темы
    Вы не можете отвечать на сообщения
    Вы не можете редактировать свои сообщения
    Вы не можете удалять свои сообщения
    Вы не можете голосовать в опросах
    Вы не можете прикреплять файлы к сообщениям
    Вы можете скачивать файлы