Ссылка на приватное зеркало всего за 1$. Внимание количество ограничено!!!


iTunes

1+1

iTunes

мы

WEB-DL

1

iTunes

Чернобыль

iTunes

Ральф против интернета

Лицензия

ПШазам

Лицензия

Оно 2

WEB-DL

30
pack

Вам бонус

ВАЖНО

!!Акция!!

Alien_RageХит недели

RePack

Resident Evil 21

ИГРА 18+

pack

RePack

jed

!!Акция!!

Alien_Rage

RePack

fifa19

RePack

Assassins Creed: Odyssey

RePack

NEED FOR SPEED™ PAYBACK

4 сезон

9 сезон

Бесстыжие 9 сезон

Все сериалы

все сериалы на PB.wtf

RePack

FAR CRY 5
Ребята, катастрофически не хватает 1900р. для оплаты серверов за Октябрь (всвязи с блокировками трафик упал в 3 раза), 1-2р., выручайте.
  

Закатать в асфальт / Dragged Across Concrete (С. Крэйг Залер) [2018, боевик, триллер, драма, криминал, BDRip-AVC] DUB [iTunes] +MVO [HDRezka Studio] pb.wtf

Закатать в асфальт через торрент pb.wtf

Раздают: 2 [ 0 KB/s ]
Размер: 3.11 GB | Добавлен: 1 мес. 19 д. назад | Торрент скачан:114 раз
Скачать  

27-10-2019 04:08 Закатать в асфальт Скачать торрент  

Закатать в асфальт / Dragged Across Concrete
«Эти жёсткие мужские игры»

Год выпуска: 2018
Страна: Канада, США
Жанр: боевик, триллер, драма, криминал
Продолжительность: 02:38:22
Перевод:

Дублированный | iTunes
Профессиональный многоголосый | HDRezka Studio

Субтитры: Русские (полные), Английские (полные, SDH)

Режиссер: С. Крэйг Залер

rating

В ролях:

Мэл Гибсон (Brett Ridgeman), Винс Вон (Anthony Lurasetti), Тори Киттлз (Henry Johns), Майкл Джей Уайт (Biscuit), Томас Кречман (Lorentz Vogelmann), Дженнифер Карпентер (Kelly Summer), Лори Холден (Melanie Ridgeman), Дон Джонсон (Chief Lt. Calvert), Удо Кир (Friedrich), Фред Меламед (Mr. Edmington), Джастин Уоррингтон (Cheryl), Мэттью МакКоулл (Grey Gloves)
Описание:

Старого ищейку Риджмана и безбашенного Энтони отстраняют от дел после того, как в сеть попадает видео, где напарники жестко выбивают признание из подозреваемого. Не имея других средств к существованию, экс-копы находят работу в криминальном подполье, где их главным врагом становится вышедший из тюрьмы Генри Джонс, мечтающий о мести полиции.

Качество: BDRip-AVC
Формат: MKV

Видео: 1024x426 (2.40:1), 23,976 fps, x264 ~1 788 kbps avg, 0.171 bit/pixel
Аудио#1: 48 kHz, AC3 Dolby Digital Plus, 3/2 (L,C,R,l,r) + LFE ch, ~384.00 kbps avg | RUS (iTunes)
Аудио#2: 48 kHz, AC3 Dolby Digital, 2 (L,R) ch, ~192.00 kbps avg | RUS (HDRezka Studio)
Аудио#3: 48 kHz, AC3 Dolby Digital Plus, 3/2 (L,C,R,l,r) + LFE ch, ~448.00 kbps avg | ENG
скриншот  скриншот  скриншот  

скриншот  скриншот  скриншот  

Общее
Уникальный идентификатор : 200195608904668663484439860566317016650 (0x969C4594305E2FD41C3A66902B77264A)
Полное имя : F:OlLanDGroupDragged.Across.Concrete.2018.BDRip(AVC).OllanDGroup.mkv
Формат : Matroska
Версия формата : Version 4 / Version 2
Размер файла : 3,11 Гбайт
Продолжительность : 2 ч. 38 м.
Общий поток : 2809 Кбит/сек
Название фильма : Dragged Across Concrete 2018 #TorpedoUK#
Дата кодирования : UTC 2019-05-18 16:21:45
Программа кодирования : mkvmerge v29.0.0 ('Like It Or Not') 64-bit
Библиотека кодирования : libebml v1.3.6 + libmatroska v1.4.9

Видео
Идентификатор : 1
Формат : AVC
Формат/Информация : Advanced Video Codec
Профиль формата : High@L4.1
Параметр CABAC формата : Да
Параметр ReFrames формата : 10 кадров
Идентификатор кодека : V_MPEG4/ISO/AVC
Продолжительность : 2 ч. 38 м.
Битрейт : 1788 Кбит/сек
Ширина : 1024 пикселя
Высота : 426 пикселей
Соотношение сторон : 2,40:1
Режим частоты кадров : Постоянный
Частота кадров : 23,976 (24000/1001) кадра/сек
Цветовое пространство : YUV
Субдискретизация насыщенности : 4:2:0
Битовая глубина : 8 бит
Тип развёртки : Прогрессивная
Бит/(Пиксели*Кадры) : 0.171
Размер потока : 1,97 Гбайт (63%)
Библиотека кодирования : x264 core 146 r2538 121396c
Настройки программы : cabac=1 / ref=10 / deblock=1:-2:-3 / analyse=0x3:0x113 / me=umh / subme=11 / psy=1 / psy_rd=0.95:0.07 / mixed_ref=1 / me_range=48 / chroma_me=1 / trellis=2 / 8x8dct=1 / cqm=0 / deadzone=21,11 / fast_pskip=1 / chroma_qp_offset=-3 / threads=6 / lookahead_threads=1 / sliced_threads=0 / nr=0 / decimate=1 / interlaced=0 / bluray_compat=0 / constrained_intra=0 / bframes=11 / b_pyramid=2 / b_adapt=2 / b_bias=0 / direct=3 / weightb=1 / open_gop=0 / weightp=2 / keyint=240 / keyint_min=23 / scenecut=40 / intra_refresh=0 / rc_lookahead=40 / rc=2pass / mbtree=0 / bitrate=1788 / ratetol=1.0 / qcomp=0.60 / qpmin=0 / qpmax=69 / qpstep=4 / cplxblur=20.0 / qblur=0.5 / vbv_maxrate=50000 / vbv_bufsize=62500 / nal_hrd=none / filler=0 / ip_ratio=1.40 / pb_ratio=1.30 / aq=1:1.00
Язык : English
Default : Да
Forced : Нет

Аудио #1
Идентификатор : 2
Формат : AC-3
Формат/Информация : Audio Coding 3
Расширение режима : CM (complete main)
Параметр Endianness формата : Big
Идентификатор кодека : A_AC3
Продолжительность : 2 ч. 38 м.
Вид битрейта : Постоянный
Битрейт : 384 Кбит/сек
Каналы : 6 каналов
Расположение каналов : Front: L C R, Side: L R, LFE
Частота : 48,0 КГц
Частота кадров : 31,250 кадров/сек (1536 spf)
Битовая глубина : 16 бит
Метод сжатия : С потерями
Размер потока : 435 Мбайт (14%)
Заголовок : DUB [iTunes]
Язык : Russian
Default : Да
Forced : Нет

Аудио #2
Идентификатор : 3
Формат : AC-3
Формат/Информация : Audio Coding 3
Расширение режима : CM (complete main)
Параметр Endianness формата : Big
Идентификатор кодека : A_AC3
Продолжительность : 2 ч. 38 м.
Вид битрейта : Постоянный
Битрейт : 192 Кбит/сек
Каналы : 2 канала
Расположение каналов : Front: L R
Частота : 48,0 КГц
Частота кадров : 31,250 кадров/сек (1536 spf)
Битовая глубина : 16 бит
Метод сжатия : С потерями
Размер потока : 218 Мбайт (7%)
Заголовок : MVO [HDRezka Studio]
Язык : Russian
Default : Нет
Forced : Нет

Аудио #3
Идентификатор : 4
Формат : AC-3
Формат/Информация : Audio Coding 3
Расширение режима : CM (complete main)
Параметр Endianness формата : Big
Идентификатор кодека : A_AC3
Продолжительность : 2 ч. 38 м.
Вид битрейта : Постоянный
Битрейт : 448 Кбит/сек
Каналы : 6 каналов
Расположение каналов : Front: L C R, Side: L R, LFE
Частота : 48,0 КГц
Частота кадров : 31,250 кадров/сек (1536 spf)
Битовая глубина : 16 бит
Метод сжатия : С потерями
Размер потока : 507 Мбайт (16%)
Заголовок : [Original]
Язык : English
Default : Нет
Forced : Нет

Текст #1
Идентификатор : 5
Формат : UTF-8
Идентификатор кодека : S_TEXT/UTF8
Идентификатор кодека/Информация : UTF-8 Plain Text
Продолжительность : 2 ч. 28 м.
Битрейт : 71 бит/сек
Count of elements : 1617
Размер потока : 78,3 Кбайт (0%)
Заголовок : Full
Язык : Russian
Default : Нет
Forced : Нет

Текст #2
Идентификатор : 6
Формат : UTF-8
Идентификатор кодека : S_TEXT/UTF8
Идентификатор кодека/Информация : UTF-8 Plain Text
Продолжительность : 2 ч. 28 м.
Битрейт : 45 бит/сек
Count of elements : 1548
Размер потока : 49,6 Кбайт (0%)
Заголовок : Full
Язык : English
Default : Нет
Forced : Нет

Текст #3
Идентификатор : 7
Формат : UTF-8
Идентификатор кодека : S_TEXT/UTF8
Идентификатор кодека/Информация : UTF-8 Plain Text
Продолжительность : 2 ч. 28 м.
Битрейт : 46 бит/сек
Count of elements : 1677
Размер потока : 50,4 Кбайт (0%)
Заголовок : SDH
Язык : English
Default : Нет
Forced : Нет

Меню
00:00:00.000 : ru:Глава 01
00:09:32.113 : ru:Глава 02
00:19:30.920 : ru:Глава 03
00:27:22.558 : ru:Глава 04
00:35:24.622 : ru:Глава 05
00:43:50.503 : ru:Глава 06
00:55:01.381 : ru:Глава 07
01:04:38.291 : ru:Глава 08
01:15:11.298 : ru:Глава 09
01:24:12.005 : ru:Глава 10
01:30:18.079 : ru:Глава 11
01:37:44.650 : ru:Глава 12
01:45:51.804 : ru:Глава 13
02:02:37.433 : ru:Глава 14
02:14:07.081 : ru:Глава 15
02:25:37.729 : ru:Глава 16

pb.wtf



Скачать Закатать в асфальт через торрент https://i110.fastpic.ru/big/2019/0518/d3/d770df0edc72f8a76d53d73a94e2cdd3.jpg Скачать фильм Закатать в асфальт через торрент бесплантно в хорошем качестве Описание: Старого ищейку Риджмана и безбашенного Энтони отстраняют от дел после того, как в сеть попадает видео, где напарники жестко ... 10 10 6
Торрент: Зарегистрирован [2019-10-27 04:08] · скачан: 114 раз
Статус: √ проверено
Размер: 3.11 GB
Как cкачать? Как скачать Закатать в асфальт через торрент | qTorrent

% Раздел Тема Автор DL S | L
Фильмы 2018 [DVDrip, WEB-DLRip, HDrip] (DUB, MVO) [ 2.11 GB ] Закатать в асфальт / Dragged Across Concrete [2018 BDRip] - Twi7ter Скачать
18 | 0
Фильмы (Blu-ray, BD-Remux, HDDVD) [ 35.71 GB ] Закатать в асфальт / Dragged Across Concrete [2018 BD Remux 1080p] bober100 Скачать
2 | 0
Фильмы (Blu-ray, BD-Remux, HDDVD) [ 43.38 GB ] Закатать в асфальт / Dragged Across Concrete [2018 Blu-ray 1080p] sheker187 Скачать
1 | 0
Фильмы [HD 720p, 1080p] (Хороший звук DUB, MVO) [ 11.14 GB ] Закатать в асфальт / Dragged Across Concrete [2018 BDRip 1080p] bober100 Скачать
6 | 0
Фильмы 2018 [DVDrip, WEB-DLRip, HDrip] (DUB, MVO) [ 1.46 GB ] Закатать в асфальт / Dragged Across Concrete [2018 BDRip] - Twi7ter Скачать
24 | 1
Фильмы [HD 720p, 1080p] (Хороший звук DUB, MVO) [ 4.25 GB ] Закатать в асфальт / Dragged Across Concrete [2018 BDRip 720p] bober100 Скачать
8 | 0
Фильмы 2018 [DVDrip, WEB-DLRip, HDrip] (DUB, MVO) [ 2.11 GB ] Закатать в асфальт / Dragged Across Concrete [2018 BDRip] bober100 Скачать
11 | 0

28-11-2019 20:33  

Отключить всю рекламу на сайте

    Дорогой пользователь! Огромная просьба, поблагодарите релизера, оцените раздачу и оставьте свои комментарий, если Вы скачали Закатать в асфальт через торрент бесплатно! Внесите свою лепту в развитие PiratBit!
    Комментировать посты могут только пользователи прошедшие не сложную регистрацию
    Показать сообщения:    

    Закатать в асфальт через торрент
    Скачать бесплатно Закатать в асфальт
    Закатать в асфальт скачать торрент
    Закатать в асфальт смотреть онлайн
    Cкачать фильм Закатать в асфальт бесплатно
    Закатать в асфальт скачать торрент в хорошем качестве
    Закатать в асфальт смотреть онлайн бесплатно в хорошем качестве


    Вы не можете начинать темы
    Вы не можете отвечать на сообщения
    Вы не можете редактировать свои сообщения
    Вы не можете удалять свои сообщения
    Вы не можете голосовать в опросах
    Вы не можете прикреплять файлы к сообщениям
    Вы можете скачивать файлы