2 сезон

iTunes

MVO

1

2 сезон

iTunes

iTunes

1 сезон

RePack

30

Новинка

ВАЖНО

ИГРА 18+

pack

RePack

MK11
pack

Легкие деньги

RePack

jed

RePack

fifa19

RePack

RDR2

RePack

NEED FOR SPEED™ PAYBACK

4 сезон

9 сезон

Бесстыжие 9 сезон

Все сериалы

все сериалы на PB.wtf

RePack

FAR CRY 5

Anonymous, доброй ночи, мы не успеваем собрать деньги на оплату серверов за декабрь и январь, помогите нам пожалуйста в это трудное время. В качестве благодарности мы отключим Вам всю рекламу на сайте (укажите свой ник в строку Ваше имя)!

×
  
Magnet ссылка

Хэппи / Happy! / Сезон: 1 / Серии: 1-8 из 8 (Брайан Тейлор, Уэйн Йип, Дэвид Петрарка) [2017, комедия, криминал, детектив, HDRip] DUB [ТВ3] pb.wtf

Хэппи через торрент pb.wtf

Размер: 4.32 GB | Добавлен: 1 год 2 мес. назад | Торрент скачан:31 раз
Скачать  

27-10-2019 04:31 Хэппи Скачать торрент  

Хэппи | Happy
«Say Hello to His Little Friend»
Год выпуска: 2017
Страна: США
Жанр: комедия, криминал, детектив
Продолжительность: 0:43:00
Перевод: Дублированный | ТВ3
Субтитры: нет

Режиссёр: Брайан Тейлор, Уэйн Йип, Дэвид Петрарка

В ролях: Кристофер Мелони, Рен Колли, Александр Джеймисон, Брайс Лоренцо, Майкл Мейзе, Лили Мирожник, Скотт Барик, Бен Коул, Данте Перейра-Олсон, Маттиас Себастьан Гарри

Описание: Ник Сакс, вечно пьяный бывший полицейский, становится наёмным убийцей. Он плывёт по течению в мире случайных смертей, секса и предательства. Когда одно из его дел идёт наперекосяк, нетрезвая жизнь Сакса навсегда меняется с появлением крошечного, вечно положительного, воображаемого голубого крылатого единорога.

Доп. информация: В первой серии на вырезанные места вставлена озвучка lostfilm.




Качество: HDRip
Формат: AVI

Видео: MPEG4, DivX 5, 704x400 (16:9), 23.976 fps, 1 360 Kbps (0.201 bit/pixel)
Аудио: AC-3, 48.0 KHz, 2 ch, 192 Kbps, CBR - русский
Аудио 2: AC-3, 48.0 KHz, 2 ch, 192 Kbps, CBR - английский
Общее
Полное имя : I:x01 - Saint Nick.avi
Формат : AVI
Формат/Информация : Audio Video Interleave
Размер файла : 553 Мбайт
Продолжительность : 43 м. 55 с.
Общий поток : 1758 Кбит/сек
Название фильма : Хэппи. Сезон 1 / Happy. Season 1 (2017)
Программа кодирования : VirtualDubMod 1.5.10.2 (build 2540/release)
Библиотека кодирования : VirtualDubMod build 2540/release
Авторское право : miha2154

Видео
Идентификатор : 0
Формат : MPEG-4 Visual
Профиль формата : Advanced Simple@L5
Настройки формата : BVOP1 / Custom Matrix
Параметр BVOP формата : 1
Параметр QPel формата : Нет
Параметр GMC формата : Без точки перехода
Параметр матрицы формата : Выборочная
Идентификатор кодека : DX50
Идентификатор кодека/Подсказка : DivX 5
Продолжительность : 43 м. 55 с.
Битрейт : 1360 Кбит/сек
Ширина : 704 пикселя
Высота : 400 пикселей
Соотношение сторон : 16:9
Частота кадров : 23,976 (24000/1001) кадра/сек
Цветовое пространство : YUV
Субдискретизация насыщенности : 4:2:0
Битовая глубина : 8 бит
Тип развёртки : Прогрессивная
Метод сжатия : С потерями
Бит/(Пиксели*Кадры) : 0.201
Размер потока : 427 Мбайт (77%)
Библиотека кодирования : XviD 65

Аудио #1
Идентификатор : 1
Формат : AC-3
Формат/Информация : Audio Coding 3
Коммерческое название : Dolby Digital
Идентификатор кодека : 2000
Продолжительность : 43 м. 55 с.
Вид битрейта : Постоянный
Битрейт : 192 Кбит/сек
Каналы : 2 канала
Channel layout : L R
Частота : 48,0 КГц
Частота кадров : 31,250 кадров/сек (1536 SPF)
Битовая глубина : 16 бит
Метод сжатия : С потерями
Размер потока : 60,3 Мбайт (11%)
Выравнивание : Разделение по промежуткам
Продолжительность промежутка : 42 мс. (1,00 видеокадр)
Время предзагрузки промежутка : 500 мс.
Заголовок : Профессиональный (полное дублирование) ТВ3
ServiceKind/String : Complete Main

Аудио #2
Идентификатор : 2
Формат : AC-3
Формат/Информация : Audio Coding 3
Коммерческое название : Dolby Digital
Идентификатор кодека : 2000
Продолжительность : 43 м. 55 с.
Вид битрейта : Постоянный
Битрейт : 192 Кбит/сек
Каналы : 2 канала
Channel layout : L R
Частота : 48,0 КГц
Частота кадров : 31,250 кадров/сек (1536 SPF)
Битовая глубина : 16 бит
Метод сжатия : С потерями
Размер потока : 60,3 Мбайт (11%)
Выравнивание : Разделение по промежуткам
Продолжительность промежутка : 42 мс. (1,00 видеокадр)
Время предзагрузки промежутка : 500 мс.
Заголовок : Английский
ServiceKind/String : Complete Main
pb.wtf



Скачать Хэппи через торрент https://i5.imageban.ru/out/2019/07/19/a4b145542e55488dbf9d132d6b000053.png Скачать фильм Хэппи через торрент бесплантно в хорошем качестве Описание: Ник Сакс, вечно пьяный бывший полицейский, становится наёмным убийцей. Он плывёт по течению в мире случайных смертей, секса и ... 7 10 3
Торрент: Зарегистрирован [2019-10-27 04:31] · скачан: 31 раз
Статус: √ проверено
Размер: 4.32 GB
Как cкачать? Как скачать Хэппи через торрент | UTorrent

% Раздел Тема Автор DL S | L
Зарубежные сериалы [ 65.42 GB ] Хэппи! / Happy! / Сезон: 1 / Серии: 1-8 из 8 [2017 BDRemux 1080p] DVO [Кубик в Кубе] bober100 Скачать
1 | 0
Зарубежные сериалы [ 4.32 GB ] Хэппи / Happy! / Сезон 1 / Серия 1-8 из 8 [2017 WEB-DLRip] [DVO] killermax2013 Скачать
1 | 0
Зарубежные сериалы [ 14.78 GB ] Хэппи / Happy! / Сезон 1 / Серия 1-8 из 8 [2017 WEB-DL 1080p] killermax2013 Скачать
1 | 0
Зарубежные сериалы [ 7 GB ] Хэппи / Happy! / Сезон: 1 / Серии: 1-8 из 8 [2017 WEB-DLRip] MVO [LostFilm] bober100 Скачать
1 | 0
Зарубежные сериалы [ 4.3 GB ] Хэппи / Happy! / Сезон: 1 / Серии: 1-8 из 8 [2017 WEB-DLRip] MVO [NewStudio] bober100 Скачать
1 | 0
Зарубежные сериалы [ 3.42 GB ] Хэппи / Happy! / Сезон: 1 / Серии: 1-8 из 8 [2017 HDTVRip] MVO [ColdFilm] bober100 Скачать
1 | 0
Зарубежные сериалы [ 19.71 GB ] Хэппи / Happy! / Сезон: 1 / Серии 1-8 из 8 [2017 WEBRip 1080p ] [LostFilm] 1mpulse2k20 Скачать
1 | 0

28-11-2019 20:33  

Отключить всю рекламу на сайте

    Дорогой пользователь! Огромная просьба, поблагодарите релизера, оцените раздачу и оставьте свои комментарий, если Вы скачали Хэппи через торрент бесплатно! Внесите свою лепту в развитие PiratBit!
    Комментировать посты могут только пользователи прошедшие не сложную регистрацию
    Показать сообщения:    

    Хэппи через торрент
    Скачать бесплатно Хэппи
    Хэппи скачать торрент
    Хэппи смотреть онлайн
    Cкачать фильм Хэппи бесплатно
    Хэппи скачать торрент в хорошем качестве
    Хэппи смотреть онлайн бесплатно в хорошем качестве


    Вы не можете начинать темы
    Вы не можете отвечать на сообщения
    Вы не можете редактировать свои сообщения
    Вы не можете удалять свои сообщения
    Вы не можете голосовать в опросах
    Вы не можете прикреплять файлы к сообщениям
    Вы можете скачивать файлы