новый адрес
Ссылка на приватное зеркало всего за 1$. Внимание количество ограничено!!!

iTunes

1+1

iTunes

мы

WEB-DL

1

iTunes

Чернобыль

iTunes

Ральф против интернета

Лицензия

ПШазам

Лицензия

Оно 2

Лицензия

30
pack

Вам бонус

ВАЖНО

!!Акция!!

Alien_RageХит недели

RePack

Resident Evil 21

ИГРА 18+

pack

RePack

jed

!!Акция!!

Alien_Rage

RePack

fifa19

RePack

Assassins Creed: Odyssey

RePack

NEED FOR SPEED™ PAYBACK

3 сезон

9 сезон

Бесстыжие 9 сезон

Все сериалы

все сериалы на PB.wtf

RePack

FAR CRY 5
Ребята, катастрофически не хватает 1900р. для оплаты серверов за Октябрь (всвязи с блокировками трафик упал в 3 раза), 1-2р., выручайте.
  

Сверх(НЕ)естественное / Extra Ordinary (Майк Ахерн, Энда Логман) [2019, Ужасы, фэнтези, комедия, BDRip-AVC] DUB [iTunes] pb.wtf

Сверх через торрент pb.wtf

Раздают: 4 [ 142 KB/s ]
Размер: 1.73 GB | Добавлен: 1 мес. 11 д. назад | Торрент скачан:59 раз
Скачать  

27-10-2019 08:09 Сверх Скачать торрент  

Сверх(НЕ)естественное / Extra Ordinary«Паранормальное — это норма!»
Год выпуска: 2019
Страна: Ирландия, Бельгия
Жанр: Ужасы, фэнтези, комедия
Продолжительность: 01:34:20
Перевод: Дублированный | iTunes
Субтитры: Русские (полные)

Режиссер: Майк Ахерн, Энда Логман

rating

В ролях: Маив Хиггинс, Бэрри Уорд, Уилл Форте, Клаудия О’Доэрти, Джэми Бимиш, Терри Чандлер, Ристерд Купер, Эмма Коулман, Кэрри Краули, Мэри МакЭвой, Сара О'Фаррелл, Агата Эллис, Валери О’Коннор

Описание: Скромная Роуз обладает экстрасенсорными способностями, но соседи достают ее лишь просьбами изгнать духов надоедливых родственников. Однажды в ее родном городке объявляется рок-звезда Кристиан Уинтер. Наделенный дьявольской силой, он околдовывает местную девушку, и ее отец в отчаянии просит Роуз о помощи. У героини появляется шанс раскрыть свой дар, а заодно устроить личную жизнь.

Качество: BDRip-AVC
Формат: MKV

Видео: 1024x426 (2.40:1), 24,000 fps, x264 ~1 798 kbps avg, 0.172 bit/pixel
Аудио#1: 48 kHz, AC3 Dolby Digital, 3/2 (L,C,R,l,r) + LFE ch, ~384.00 kbps avg | RUS (iTunes)
Аудио#2: 48 kHz, AC3 Dolby Digital, 3/2 (L,C,R,l,r) + LFE ch, ~448.00 kbps avg | ENG
скриншот  скриншот  скриншот  

скриншот  скриншот  скриншот  

Общее
Уникальный идентификатор: 274601268980775072155628199488799179403 (0xCE9647D9F7DC3DE17100A5E7CF81028B)
Полное имя: F:\OlLanDGroup\Extra.Ordinary.2019.BDRip(AVC).OlLanDGroup.mkv
Формат: Matroska
Версия формата: Version 4 / Version 2
Размер файла: 1,73 Гбайт
Продолжительность: 1 ч. 34 м.
Общий поток: 2631 Кбит/сек
Название фильма: Extra.Ordinary.2019 #TorpedoUK#
Дата кодирования: UTC 2019-10-27 07:46:36
Программа кодирования: mkvmerge v29.0.0 ('Like It Or Not') 64-bit
Библиотека кодирования: libebml v1.3.6 + libmatroska v1.4.9

Видео
Идентификатор: 1
Формат: AVC
Формат/Информация: Advanced Video Codec
Профиль формата: High@L4.1
Параметр CABAC формата: Да
Параметр ReFrames формата: 10 кадров
Идентификатор кодека: V_MPEG4/ISO/AVC
Продолжительность: 1 ч. 34 м.
Битрейт: 1798 Кбит/сек
Ширина: 1024 пикселя
Высота: 426 пикселей
Соотношение сторон: 2,40:1
Режим частоты кадров: Постоянный
Частота кадров: 24,000 кадра/сек
Цветовое пространство: YUV
Субдискретизация насыщенности: 4:2:0
Битовая глубина: 8 бит
Тип развёртки: Прогрессивная
Бит/(Пиксели*Кадры): 0.172
Размер потока: 1,18 Гбайт (68%)
Библиотека кодирования: x264 core 146 r2538 121396c
Настройки программы: cabac=1 / ref=10 / deblock=1:-3:-3 / analyse=0x3:0x113 / me=umh / subme=11 / psy=1 / psy_rd=1.00:0.03 / mixed_ref=1 / me_range=48 / chroma_me=1 / trellis=2 / 8x8dct=1 / cqm=0 / deadzone=21,11 / fast_pskip=1 / chroma_qp_offset=-6 / threads=6 / lookahead_threads=1 / sliced_threads=0 / nr=0 / decimate=1 / interlaced=0 / bluray_compat=0 / constrained_intra=0 / bframes=11 / b_pyramid=2 / b_adapt=2 / b_bias=0 / direct=3 / weightb=1 / open_gop=0 / weightp=2 / keyint=240 / keyint_min=23 / scenecut=40 / intra_refresh=0 / rc_lookahead=40 / rc=2pass / mbtree=0 / bitrate=1798 / ratetol=1.0 / qcomp=0.60 / qpmin=0 / qpmax=69 / qpstep=4 / cplxblur=20.0 / qblur=0.5 / vbv_maxrate=50000 / vbv_bufsize=62500 / nal_hrd=none / filler=0 / ip_ratio=1.40 / pb_ratio=1.30 / aq=1:1.00
Язык: English
Default: Да
Forced: Нет

Аудио #1
Идентификатор: 2
Формат: AC-3
Формат/Информация: Audio Coding 3
Расширение режима: CM (complete main)
Параметр Endianness формата: Big
Идентификатор кодека: A_AC3
Продолжительность: 1 ч. 34 м.
Вид битрейта: Постоянный
Битрейт: 384 Кбит/сек
Каналы: 6 каналов
Расположение каналов: Front: L C R, Side: L R, LFE
Частота: 48,0 КГц
Частота кадров: 31,250 кадров/сек (1536 spf)
Битовая глубина: 16 бит
Метод сжатия: С потерями
Размер потока: 259 Мбайт (15%)
Заголовок: DUB [iTunes]
Язык: Russian
Default: Да
Forced: Нет

Аудио #2
Идентификатор: 3
Формат: AC-3
Формат/Информация: Audio Coding 3
Расширение режима: CM (complete main)
Параметр Endianness формата: Big
Идентификатор кодека: A_AC3
Продолжительность: 1 ч. 34 м.
Вид битрейта: Постоянный
Битрейт: 448 Кбит/сек
Каналы: 6 каналов
Расположение каналов: Front: L C R, Side: L R, LFE
Частота: 48,0 КГц
Частота кадров: 31,250 кадров/сек (1536 spf)
Битовая глубина: 16 бит
Метод сжатия: С потерями
Размер потока: 302 Мбайт (17%)
Заголовок: [Original]
Язык: English
Default: Нет
Forced: Нет

Текст
Идентификатор: 4
Формат: UTF-8
Идентификатор кодека: S_TEXT/UTF8
Идентификатор кодека/Информация: UTF-8 Plain Text
Продолжительность: 1 ч. 29 м.
Битрейт: 118 бит/сек
Count of elements: 1207
Размер потока: 77,3 Кбайт (0%)
Заголовок: Full
Язык: Russian
Default: Нет
Forced: Нет

Меню
00:00:00.000: :Глава 01
00:10:08.541: :Глава 02
00:20:12.666: :Глава 03
00:28:46.500: :Глава 04
00:36:38.958: :Глава 05
00:46:45.250: :Глава 06
00:57:59.291: :Глава 07
01:06:36.541: :Глава 08
01:17:14.750: :Глава 09
01:28:53.458: :Глава 10

pb.wtf



Скачать Сверх через торрент https://d.radikal.ru/d10/1910/4d/b25553f545d4.jpg Скачать фильм Сверхчерез торрент бесплантно в хорошем качестве Описание: Скромная Роуз обладает экстрасенсорными способностями, но соседи достают ее лишь просьбами изгнать духов надоедливых ... 10 10 2
Торрент: Зарегистрирован [2019-10-27 08:09] · скачан: 59 раз
Статус: √ проверено
Размер: 1.73 GB
Как cкачать? Как скачать Сверх через торрент | qTorrent

% Раздел Тема Автор DL S | L
Старые игры [ 261 MB ] Counter-Strike 1.6 [Сверх новая cs 2014] [Repack RU/EN Action Shooter FPS] serega-krik Скачать
2 | 0
Сверхъестественное (Supernatural) [ 10.06 GB ] Сверхъестественное / Supernatural / Сезон: 13 / Серии 1-23 из 23 [2017 WEB-DLRip] MVO [LostFilm] GEKADOL Скачать
4 | 0
Сверхъестественное (Supernatural) [ 12.45 GB ] Сверхъестественное / Supernatural / Сезон: 3 / Серии 1-16 из 16 [2007 BDRip-AVC] DUB [Рен-ТВ] winchester00100010 Скачать
1 | 0
Сверхъестественное (Supernatural) [ 15.76 GB ] Сверхъестественное / Supernatural / Сезон: 2 / Серии 1-22 из 22 [2006 HDRip-AVC] DUB [Рен-ТВ] winchester00100010 Скачать
1 | 0
Сверхъестественное (Supernatural) [ 20.9 GB ] Сверхъестественное / Supernatural / Сезон: 1 / Серии 1-22 из 22 [2005 HDRip-AVC] DUB [Рен-ТВ] winchester00100010 Скачать
1 | 0
Сверхъестественное (Supernatural) [ 15.87 GB ] Сверхъестественное / Supernatural / Сезон: 5 / Серии 1-22 из 22 [2009 HDRip-AVC DUB ] winchester00100010 Скачать
2 | 0
Сверхъестественное (Supernatural) [ 76.57 GB ] Сверхъестественное / Supernatural / Сезон: 13 / Серии 1-23 из 23 [2017-2018 . WEBRip 1080p] [MVO] killermax2013 Скачать
1 | 0

28-11-2019 20:33  

Отключить всю рекламу на сайте

    Дорогой пользователь! Огромная просьба, поблагодарите релизера, оцените раздачу и оставьте свои комментарий, если Вы скачали Сверх через торрент бесплатно! Внесите свою лепту в развитие PiratBit!
    Комментировать посты могут только пользователи прошедшие не сложную регистрацию
    Показать сообщения:    

    Сверх через торрент
    Скачать бесплатно Сверх
    Сверх скачать торрент
    Сверх смотреть онлайн
    Cкачать фильм Сверх бесплатно
    Сверх скачать торрент в хорошем качестве
    Сверх смотреть онлайн бесплатно в хорошем качестве


    Вы не можете начинать темы
    Вы не можете отвечать на сообщения
    Вы не можете редактировать свои сообщения
    Вы не можете удалять свои сообщения
    Вы не можете голосовать в опросах
    Вы не можете прикреплять файлы к сообщениям
    Вы можете скачивать файлы