Ссылка на приватное зеркало всего за 1$. Внимание количество ограничено!!!

OK

1+1

iTunes

мы

OK

1

WEB-DLRip

Джокер

Пифагор

Ведьмак / The Witcher сериал

Лицензия

ПШазам

ОК

Оно 2

iTunes

30
pack

Вам бонус

ВАЖНО

!!Акция!!

Alien_RageХит недели

RePack

Resident Evil 21

ИГРА 18+

pack

RePack

jed

!!Акция!!

Alien_Rage

RePack

fifa19

RePack

Assassins Creed: Odyssey

RePack

NEED FOR SPEED™ PAYBACK

4 сезон

9 сезон

Бесстыжие 9 сезон

Все сериалы

все сериалы на PB.wtf

RePack

FAR CRY 5
  

Беглый огонь / Rapid Fire (Дуайт Х. Литтл) [1992, боевик, триллер, драма, криминал, BDRip (AVC) by msltel] DUB, MVO, AVO pb.wtf

Беглый огонь через торрент pb.wtf

Размер: 2.54 GB | Добавлен: 2 мес. 24 д. назад | Торрент скачан:15 раз
Скачать  

27-10-2019 10:39 Беглый огонь Скачать торрент  

Название: Беглый огонь
Оригинальное название: Rapid Fire
Год выпуска: 1992
Страна: США
Жанр: боевик, триллер, драма, криминал
Продолжительность: 01:35:14
Перевод: дублированный, профессиональный многоголосый, авторский

Режиссер: Дуайт Х. Литтл
В ролях: Брэндон Ли, Пауэрс Бут, Ник Манкузо, Рэймонд Дж. Бэрри, Кейт Ходж, Ци Ма, Тони Лонго, Майкл Пол Чан, Дастин Нгуен, Бриджитта Штенберг

О фильме: Студент-байкер Джейк Ло становится свидетелем жестокого убийства. Не думая о том, кто стоит за спиной убийц, он соглашается свидетельствовать в суде, и тут же чьи-то люди, под видом агентов ФБР, пытаются убрать его. Едва ускользнув от лже-агентов, Джейк оказывается в центре ураганной схватки за его голову. ФБР, наркобароны, друзья, враги — всё смешалось, и неизвестно, кто несёт смерть, а кто — помощь. Здесь могут спасти только инстинкты. И инстинкт подсказывает, что единственный, кому можно верить, — офицер полиции Райан. Но только одно может предложить Райан: сыграть подсадную утку в его охоте...



Качество: BDRip (AVC)
Формат: MKV
Видео: MPEG-4 AVC, 3056 Kбит/с, 1024x554, 23.976 кадр/с
Аудио 1: русский, AC3, 192 kbps, 2 ch, 48 kHz [дублированный, к/с им. Горького, с добавлением MVO]
Аудио 2: русский, AC3, 192 kbps, 2 ch, 48 kHz [закадровый многоголосый, R5]
Аудио 3: русский, AC3, 192 kbps, 2 ch, 48 kHz [авторский, Андрей Гаврилов]
Аудио 4: английский, AC3, 192 kbps, 2 ch, 48 kHz [оригинал]
Субтитры 1: русские
Субтитры 2: английские
Хардсабы на неанглийскую речь.
Главы/чаптеры
Общее
Уникальный идентификатор : 203073113533804942667757434623465456481 (0x98C67582B1774E95A76A1C0226898361)
Полное имя : D:\Video\Беглый огонь.1992.BDRip (AVC) by msltel.mkv
Формат : Matroska
Версия формата : Version 4
Размер файла : 2,54 Гбайт
Продолжительность : 1 ч. 35 м.
Общий поток : 3826 Кбит/сек
Название фильма : Rip by msltel
Дата кодирования : UTC 2019-10-27 09:59:28
Программа кодирования : mkvmerge v8.2.0 ('World of Adventure') 64bit
Библиотека кодирования : libebml v1.3.1 + libmatroska v1.4.2

Видео
Идентификатор : 1
Формат : AVC
Формат/Информация : Advanced Video Codec
Профиль формата : High@L4.1
Настройки формата : CABAC / 9 Ref Frames
Параметр CABAC формата : Да
Параметр RefFrames формата : 9 кадров
Идентификатор кодека : V_MPEG4/ISO/AVC
Продолжительность : 1 ч. 35 м.
Битрейт : 3056 Кбит/сек
Ширина : 1024 пикселя
Высота : 554 пикселя
Соотношение сторон : 1,85:1
Режим частоты кадров : Постоянный
Частота кадров : 23,976 (24000/1001) кадра/сек
Цветовое пространство : YUV
Субдискретизация насыщенности : 4:2:0
Битовая глубина : 8 бит
Тип развёртки : Прогрессивная
Бит/(Пиксели*Кадры) : 0.225
Размер потока : 2,03 Гбайт (80%)
Библиотека кодирования : x264 core 157 r2935 545de2f
Настройки программы : cabac=1 / ref=9 / deblock=1:-2:-2 / analyse=0x3:0x113 / me=umh / subme=11 / psy=1 / psy_rd=1.00:0.15 / mixed_ref=1 / me_range=32 / chroma_me=1 / trellis=2 / 8x8dct=1 / cqm=0 / deadzone=21,11 / fast_pskip=0 / chroma_qp_offset=-3 / threads=6 / lookahead_threads=1 / sliced_threads=0 / nr=0 / decimate=1 / interlaced=0 / bluray_compat=0 / constrained_intra=0 / bframes=7 / b_pyramid=2 / b_adapt=2 / b_bias=0 / direct=1 / weightb=1 / open_gop=0 / weightp=2 / keyint=230 / keyint_min=23 / scenecut=40 / intra_refresh=0 / rc_lookahead=40 / rc=crf / mbtree=1 / crf=20.5 / qcomp=0.60 / qpmin=0 / qpmax=69 / qpstep=4 / vbv_maxrate=50000 / vbv_bufsize=62500 / crf_max=0.0 / nal_hrd=none / filler=0 / ip_ratio=1.40 / aq=1:1.00
Язык : English
Default : Да
Forced : Нет

Аудио #1
Идентификатор : 2
Формат : AC-3
Формат/Информация : Audio Coding 3
Коммерческое название : Dolby Digital
Идентификатор кодека : A_AC3
Продолжительность : 1 ч. 35 м.
Вид битрейта : Постоянный
Битрейт : 192 Кбит/сек
Каналы : 2 канала
ChannelLayout : L R
Частота : 48,0 КГц
Частота кадров : 31,250 кадров/сек (1536 SPF)
Метод сжатия : С потерями
Размер потока : 131 Мбайт (5%)
Заголовок : DUB к/с им. Горького
Язык : Russian
ServiceKind/String : Complete Main
Default : Да
Forced : Нет

Аудио #2
Идентификатор : 3
Формат : AC-3
Формат/Информация : Audio Coding 3
Коммерческое название : Dolby Digital
Идентификатор кодека : A_AC3
Продолжительность : 1 ч. 35 м.
Вид битрейта : Постоянный
Битрейт : 192 Кбит/сек
Каналы : 2 канала
ChannelLayout : L R
Частота : 48,0 КГц
Частота кадров : 31,250 кадров/сек (1536 SPF)
Метод сжатия : С потерями
Размер потока : 131 Мбайт (5%)
Заголовок : MVO R5
Язык : Russian
ServiceKind/String : Complete Main
Default : Нет
Forced : Нет

Аудио #3
Идентификатор : 4
Формат : AC-3
Формат/Информация : Audio Coding 3
Коммерческое название : Dolby Digital
Идентификатор кодека : A_AC3
Продолжительность : 1 ч. 35 м.
Вид битрейта : Постоянный
Битрейт : 192 Кбит/сек
Каналы : 2 канала
ChannelLayout : L R
Частота : 48,0 КГц
Частота кадров : 31,250 кадров/сек (1536 SPF)
Метод сжатия : С потерями
Размер потока : 131 Мбайт (5%)
Заголовок : Андрей Гаврилов
Язык : Russian
ServiceKind/String : Complete Main
Default : Нет
Forced : Нет

Аудио #4
Идентификатор : 5
Формат : AC-3
Формат/Информация : Audio Coding 3
Коммерческое название : Dolby Digital
Идентификатор кодека : A_AC3
Продолжительность : 1 ч. 35 м.
Вид битрейта : Постоянный
Битрейт : 192 Кбит/сек
Каналы : 2 канала
ChannelLayout : L R
Частота : 48,0 КГц
Частота кадров : 31,250 кадров/сек (1536 SPF)
Метод сжатия : С потерями
Размер потока : 131 Мбайт (5%)
Заголовок : original
Язык : English
ServiceKind/String : Complete Main
Default : Нет
Forced : Нет

Текст #1
Идентификатор : 6
Формат : UTF-8
Идентификатор кодека : S_TEXT/UTF8
Идентификатор кодека/Информация : UTF-8 Plain Text
Продолжительность : 1 ч. 30 м.
Битрейт : 64 бит/сек
ElementCount : 805
Размер потока : 42,4 Кбайт (0%)
Заголовок : русские
Язык : Russian
Default : Нет
Forced : Нет

Текст #2
Идентификатор : 7
Формат : UTF-8
Идентификатор кодека : S_TEXT/UTF8
Идентификатор кодека/Информация : UTF-8 Plain Text
Продолжительность : 1 ч. 32 м.
Битрейт : 47 бит/сек
ElementCount : 1094
Размер потока : 32,5 Кбайт (0%)
Заголовок : английские
Язык : English
Default : Нет
Forced : Нет

Меню
00:00:00.000 : :Chapter 01
00:03:51.979 : :Chapter 02
00:07:57.475 : :Chapter 03
00:11:59.091 : :Chapter 04
00:15:47.613 : :Chapter 05
00:20:51.790 : :Chapter 06
00:24:02.730 : :Chapter 07
00:26:50.900 : :Chapter 08
00:31:42.025 : :Chapter 09
00:37:58.608 : :Chapter 10
00:39:36.206 : :Chapter 11
00:43:45.456 : :Chapter 12
00:47:26.927 : :Chapter 13
00:50:03.750 : :Chapter 14
00:55:01.047 : :Chapter 15
01:00:34.880 : :Chapter 16
01:03:10.702 : :Chapter 17
01:07:32.047 : :Chapter 18
01:11:23.362 : :Chapter 19
01:15:33.069 : :Chapter 20
01:20:46.756 : :Chapter 21
01:23:49.899 : :Chapter 22
01:27:22.403 : :Chapter 23
01:30:50.569 : :Chapter 24
pb.wtf



Скачать Беглый огонь через торрент https://d.radikal.ru/d35/1910/5d/8f463ae724ec.jpg Скачать фильм Беглый огонь через торрент бесплантно в хорошем качестве О фильме: Студент-байкер Джейк Ло становится свидетелем жестокого убийства. Не думая о том, кто стоит за спиной убийц, он соглашается ... 5 10 1
Торрент: Зарегистрирован [2019-10-27 10:39] · скачан: 15 раз
Статус: √ проверено
Размер: 2.54 GB
Как cкачать? Как скачать Беглый огонь через торрент | qTorrent

% Раздел Тема Автор DL S | L
Фильмы [HD 720p, 1080p] (Хороший звук DUB, MVO) [ 14.93 GB ] Беглый огонь / Rapid Fire [1992 BDRip 1080p by msltel] DUB 2 x MVO 4 x AVO VO msltel Скачать
1 | 0
Фильмы [HD 720p, 1080p] (Хороший звук DUB, MVO) [ 4.48 GB ] Беглый огонь / Rapid Fire [1992 BDRip 720p by msltel] DUB 2 x MVO 4 x AVO VO msltel Скачать
2 | 0

28-11-2019 20:33  

Отключить всю рекламу на сайте

    Дорогой пользователь! Огромная просьба, поблагодарите релизера, оцените раздачу и оставьте свои комментарий, если Вы скачали Беглый огонь через торрент бесплатно! Внесите свою лепту в развитие PiratBit!
    Комментировать посты могут только пользователи прошедшие не сложную регистрацию
    Показать сообщения:    

    Беглый огонь через торрент
    Скачать бесплатно Беглый огонь
    Беглый огонь скачать торрент
    Беглый огонь смотреть онлайн
    Cкачать фильм Беглый огонь бесплатно
    Беглый огонь скачать торрент в хорошем качестве
    Беглый огонь смотреть онлайн бесплатно в хорошем качестве


    Вы не можете начинать темы
    Вы не можете отвечать на сообщения
    Вы не можете редактировать свои сообщения
    Вы не можете удалять свои сообщения
    Вы не можете голосовать в опросах
    Вы не можете прикреплять файлы к сообщениям
    Вы можете скачивать файлы