Ссылка на приватное зеркало нашего сайта всего за 1$. Внимание количество ограничено!!!

2 сезон

iTunes

1 сезон

1

iTunes

iTunes

iTunes

1 сезон

RePack

30

ИГРА 18+

pack

ВАЖНО

!!Акция!!

Alien_RageХит недели

RePack

MK11
pack

Забери бонус

RePack

jed

!!Акция!!

Alien_Rage

RePack

fifa19

RePack

Assassins Creed: Odyssey

RePack

NEED FOR SPEED™ PAYBACK

4 сезон

9 сезон

Бесстыжие 9 сезон

Все сериалы

все сериалы на PB.wtf

RePack

FAR CRY 5
  

Компаньонка / Серии: 1-4 из 4 (Ева Стрельникова) [2019, Мелодрама, WEB-DLRip] pb.wtf

Компаньонка через торрент pb.wtf

Размер: 2.27 GB | Добавлен: 11 мес. назад | Торрент скачан:47 раз
Скачать  

27-10-2019 17:51 Компаньонка Скачать торрент  

КомпаньонкаГод выпуска: 2019
Страна: Россия, Украина
Жанр: Мелодрама
Продолжительность: ~ 00:45:00 серия
Субтитры: отсутствуют

Режиссер: Ева Стрельникова

В ролях: Екатерина Варченко, Елизавета Козлова, Сергей Стрельников, Дмитрий Сова, Валерий Панков, Виктория Литвиненко, Валентина Ищенко, Антон Скрипец, Вероника Дюлина, Даниил Каменский, Андрей Дебрин, Владимир Захаренков, Анжелика Эшбаева, Дарина Рыжук, Евгения Мякенькая

Описание: Лиза - фотограф. На выставке она знакомится с Олегом Орловым и соглашается стать компаньонкой для его больной дочери. Не сразу, но Лизе удается подружиться с капризной девочкой. Саша Орлова напоминает Лизе погибшую младшую сестру ...Лиза узнает, что Саше снятся кошмары. По ночам к ней приходит покойная мама и зовет девочку с собой. Поэтому Саша верит, что скоро умрет. Ни папа, ни мачеха Саши, Кристина, не придают значения видением девочки. Но однажды ночью в доме Орловых Лиза сама сталкивается с «призраком» ... Теперь она должна узнать, кто пугает Сашу и какая опасность грозит девочке в этом доме...

Качество: WEB-DLRip
Формат: AVI

Видео: XviD, ~ 1604 Кбит/с, 720x400, 25 кадр/с
Аудио: AC3, 2 ch, 192 Кбит/с
скриншот  скриншот  скриншот  скриншот  

General
Complete name : C:01.Компаньонка.(2019).WEB-DLRip.by.Nicodem.Files-x.avi
Format : AVI
Format/Info : Audio Video Interleave
File size : 581 MiB
Duration : 44mn 58s
Overall bit rate : 1 806 Kbps
Writing application : VirtualDubMod 1.5.10.3 | www.virtualdub-fr.org || (build 2550/release)
Writing library : VirtualDubMod build 2550/release

Video
ID : 0
Format : MPEG-4 Visual
Format profile : Advanced Simple@L5
Format settings, BVOP : 1
Format settings, QPel : No
Format settings, GMC : No warppoints
Format settings, Matrix : Custom
Codec ID : XVID
Codec ID/Hint : XviD
Duration : 44mn 58s
Bit rate : 1 604 Kbps
Width : 720 pixels
Height : 400 pixels
Display aspect ratio : 16:9
Frame rate : 25.000 fps
Color space : YUV
Chroma subsampling : 4:2:0
Bit depth : 8 bits
Scan type : Progressive
Compression mode : Lossy
Bits/(Pixel*Frame) : 0.223
Stream size : 516 MiB (89%)
Writing library : XviD 73

Audio
ID : 1
Format : AC-3
Format/Info : Audio Coding 3
Mode extension : CM (complete main)
Codec ID : 2000
Duration : 44mn 58s
Bit rate mode : Constant
Bit rate : 192 Kbps
Channel(s) : 2 channels
Channel positions : Front: L R
Sampling rate : 48.0 KHz
Bit depth : 16 bits
Compression mode : Lossy
Stream size : 61.8 MiB (11%)
Alignment : Split accross interleaves
Interleave, duration : 40 ms (1.00 video frame)
Interleave, preload duration : 500 ms

Внимание! Раздача ведётся путём добавления новых серий; при каждом добавлении создаётся новый торрент. Чтобы начать докачку новой серии, пользователям необходимо сделать следующее: (1) остановить скачивание, (2) удалить старый торрент у себя из клиента (старые серии удалять не надо), (3) скачать новый торрент и запустить его у себя в клиенте вместо старого, при этом указать клиенту путь в старую папку куда и должно происходить скачивание новых серий.

Ваш клиент при этом должен произвести хеширование (проверку) старой папки (если не производит сам - помогите ему сделать это), и будет докачивать только те серии которых у вас ещё нет. Старые серии при этом не удаляются, а продолжают раздаваться!

Eсли вы уже удалили старые серии, то предотвратить повторную закачку старых серий можно, отжав галочку в соответсвующих местах при запуске нового торрента.
pb.wtf



Скачать Компаньонка через торрент https://i106.fastpic.ru/big/2019/1027/0a/e41e85a8dcfdfcaedbc0d0284215620a.png Скачать фильм Компаньонка через торрент бесплантно в хорошем качестве Описание: Лиза - фотограф. На выставке она знакомится с Олегом Орловым и соглашается стать компаньонкой для его больной дочери. Не сразу, ... 9.8 10 5
Торрент: Зарегистрирован [2019-10-28 04:59] · скачан: 47 раз
Статус: √ проверено
Размер: 2.27 GB
Как cкачать? Как скачать Компаньонка через торрент | qTorrent

% Раздел Тема Автор DL S | L
Наши сериалы [ 2.26 GB ] Компаньонка / Серии: 1-4 из 4 [2019 Мело WEB-DLRip-AVC] bober100 Скачать
2 | 0

28-11-2019 20:33  

Отключить всю рекламу на сайте

    Дорогой пользователь! Огромная просьба, поблагодарите релизера, оцените раздачу и оставьте свои комментарий, если Вы скачали Компаньонка через торрент бесплатно! Внесите свою лепту в развитие PiratBit!
    Комментировать посты могут только пользователи прошедшие не сложную регистрацию
    Показать сообщения:    

    Компаньонка через торрент
    Скачать бесплатно Компаньонка
    Компаньонка скачать торрент
    Компаньонка смотреть онлайн
    Cкачать фильм Компаньонка бесплатно
    Компаньонка скачать торрент в хорошем качестве
    Компаньонка смотреть онлайн бесплатно в хорошем качестве


    Вы не можете начинать темы
    Вы не можете отвечать на сообщения
    Вы не можете редактировать свои сообщения
    Вы не можете удалять свои сообщения
    Вы не можете голосовать в опросах
    Вы не можете прикреплять файлы к сообщениям
    Вы можете скачивать файлы