2 сезон

iTunes

MVO

1

2 сезон

iTunes

iTunes

1 сезон

RePack

30

Новинка

ВАЖНО

ИГРА 18+

pack

RePack

MK11
pack

Легкие деньги

RePack

jed

RePack

fifa19

RePack

RDR2

RePack

NEED FOR SPEED™ PAYBACK

4 сезон

9 сезон

Бесстыжие 9 сезон

Все сериалы

все сериалы на PB.wtf

RePack

FAR CRY 5

Anonymous, добрый день, мы не успеваем собрать деньги на оплату серверов за декабрь и январь, помогите нам пожалуйста в это трудное время. В качестве благодарности мы отключим Вам всю рекламу на сайте (укажите свой ник в строку Ваше имя)!

×
  
Magnet ссылка

Охотник за разумом / Mindhunter / Сезон: 1-2 / Серии: 1-19 из 19 (Дэвид Финчер, Эндрю Дуглас, Азиф Кападиа) [2017-2019, триллер, драма, криминал, WEBRip 1080p] [DVO] (Кубик в Кубе) pb.wtf

Охотник за разумом через торрент pb.wtf

Размер: 52.16 GB | Добавлен: 3 мес. 25 д. назад | Торрент скачан:28 раз
Скачать  

27-10-2019 19:09 Охотник за разумом Скачать торрент  


Охотник за разумом / Mindhunter



Год выпуска: 2017-2019
Страна: США
Жанр: триллер, драма, криминал
Продолжительность: ~00:49:00
Перевод: Профессиональный (двухголосый) | Кубик в Кубе
Режиссёр: Дэвид Финчер, Эндрю Дуглас, Азиф Кападиа
В ролях: Джонатан Грофф, Анна Торв, Сонни Валиченти, Холт МакКэллани, Коттер Смит, Сонни Валиченти, Ханна Гросс, Камерон Бриттон, Алекс Морф, Стэйси Рока, Джо Таттл
Описание: Действие сериала происходит в 1979 году. В центре сюжета два агента ФБР, которые опрашивают находящихся в заключении серийных убийц с целью понимания их образа мыслей, а также раскрытия текущих преступлений.


Качество: WEBRip 1080p
Контейнер: MKV
Видео: AVC, 1920x872 (2.2:1), 23.976 fps, ~6800 kbps [1 сезон]
Видео: AVC, 1920x876 (2.2:1), 23.976 fps, ~7600 kbps [2 сезон]
Аудио: Русский / Кубик в кубе, AC3, 48 kHz, 5.1, ~384-640 kbps
Аудио 2: English / Original, AC-3, 48 kHz, 5.1, ~384 kbps [1 сезон]
Аудио 2: English / Original, E-AC-3, 48 kHz, 5.1, ~448-640 kbps [2 сезон]
Субтитры: Русские (Андрей Киселёв [1 сезон], Елена Гердова [2 сезон]), Английские (SDH), Английские (HI)
General
Unique ID : 105696745081277699717376841910783601671 (0x4F8473E00F4880A84B00700433B06C07)
Complete name : E:\Video\Serials\Mindhunter (1080p)\Season 01\Mindhunter.2017.S01E01.1080p.WEBRip.KvK.mkv
Format : Matroska
Format version : Version 4
File size : 3.15 GiB
Duration : 1 h 0 min
Overall bit rate : 7 523 kb/s
Movie name : Mindhunter - S01E01 [2017]
Encoded date : UTC 2020-09-27 17:17:21
Writing application : mkvmerge v50.0.0 ('Awakenings') 64-bit
Writing library : libebml v1.4.0 + libmatroska v1.6.2

Video
ID : 1
Format : AVC
Format/Info : Advanced Video Codec
Format profile : High@L4.1
Format settings : CABAC / 5 Ref Frames
Format settings, CABAC : Yes
Format settings, Reference frames : 5 frames
Codec ID : V_MPEG4/ISO/AVC
Duration : 59 min 33 s
Bit rate : 6 807 kb/s
Width : 1 920 pixels
Height : 872 pixels
Display aspect ratio : 2.2:1
Frame rate mode : Constant
Frame rate : 23.976 (24000/1001) FPS
Color space : YUV
Chroma subsampling : 4:2:0
Bit depth : 8 bits
Scan type : Progressive
Bits/(Pixel*Frame) : 0.170
Stream size : 2.83 GiB (90%)
Writing library : x264 core 148 r2744 b97ae06
Encoding settings : cabac=1 / ref=5 / deblock=1:-3:-3 / analyse=0x3:0x133 / me=umh / subme=10 / psy=1 / psy_rd=1.00:0.00 / mixed_ref=1 / me_range=48 / chroma_me=1 / trellis=2 / 8x8dct=1 / cqm=0 / deadzone=21,11 / fast_pskip=0 / chroma_qp_offset=-2 / threads=24 / lookahead_threads=4 / sliced_threads=0 / nr=0 / decimate=0 / interlaced=0 / bluray_compat=0 / constrained_intra=0 / bframes=9 / b_pyramid=0 / b_adapt=2 / b_bias=0 / direct=3 / weightb=1 / open_gop=0 / weightp=2 / keyint=240 / keyint_min=23 / scenecut=40 / intra_refresh=0 / rc=crf / mbtree=0 / crf=18.0 / qcomp=0.60 / qpmin=10 / qpmax=51 / qpstep=4 / ip_ratio=1.40 / pb_ratio=1.30 / aq=3:0.70
Default : Yes
Forced : No

Audio #1
ID : 2
Format : AC-3
Format/Info : Audio Coding 3
Commercial name : Dolby Digital
Codec ID : A_AC3
Duration : 1 h 0 min
Bit rate mode : Constant
Bit rate : 384 kb/s
Channel(s) : 6 channels
Channel layout : L R C LFE Ls Rs
Sampling rate : 48.0 kHz
Frame rate : 31.250 FPS (1536 SPF)
Compression mode : Lossy
Stream size : 165 MiB (5%)
Title : Кубик в кубе
Language : Russian
Service kind : Complete Main
Default : Yes
Forced : No

Audio #2
ID : 3
Format : AC-3
Format/Info : Audio Coding 3
Commercial name : Dolby Digital
Codec ID : A_AC3
Duration : 1 h 0 min
Bit rate mode : Constant
Bit rate : 384 kb/s
Channel(s) : 6 channels
Channel layout : L R C LFE Ls Rs
Sampling rate : 48.0 kHz
Frame rate : 31.250 FPS (1536 SPF)
Compression mode : Lossy
Stream size : 165 MiB (5%)
Title : Original
Language : English
Service kind : Complete Main
Default : No
Forced : No

Text #1
ID : 4
Format : UTF-8
Codec ID : S_TEXT/UTF8
Codec ID/Info : UTF-8 Plain Text
Duration : 56 min 53 s
Bit rate : 133 b/s
Count of elements : 970
Stream size : 55.7 KiB (0%)
Title : Русские (Андрей Киселёв)
Language : Russian
Default : No
Forced : No

Text #2
ID : 5
Format : UTF-8
Codec ID : S_TEXT/UTF8
Codec ID/Info : UTF-8 Plain Text
Duration : 57 min 9 s
Bit rate : 86 b/s
Count of elements : 963
Stream size : 36.2 KiB (0%)
Title : Original (SDH)
Language : English
Default : No
Forced : No

Text #3
ID : 6
Format : UTF-8
Codec ID : S_TEXT/UTF8
Codec ID/Info : UTF-8 Plain Text
Duration : 57 min 9 s
Bit rate : 87 b/s
Count of elements : 963
Stream size : 36.8 KiB (0%)
Title : Original (HI)
Language : English
Default : No
Forced : No
General
Unique ID : 322187358648686204992720797681657360320 (0xF26307364F56461C3B494276631CAFC0)
Complete name : E:\Video\Serials\Mindhunter (1080p)\Season 02\Mindhunter.2017.S02E01.1080p.WEBRip.KvK.mkv
Format : Matroska
Format version : Version 4
File size : 2.98 GiB
Duration : 48 min 29 s
Overall bit rate : 8 808 kb/s
Movie name : Mindhunter - S02E01 [2019]
Encoded date : UTC 2020-09-29 02:46:49
Writing application : mkvmerge v50.0.0 ('Awakenings') 64-bit
Writing library : libebml v1.4.0 + libmatroska v1.6.2

Video
ID : 1
Format : AVC
Format/Info : Advanced Video Codec
Format profile : High@L4.1
Format settings : CABAC / 4 Ref Frames
Format settings, CABAC : Yes
Format settings, Reference frames : 4 frames
Codec ID : V_MPEG4/ISO/AVC
Duration : 48 min 1 s
Bit rate : 7 604 kb/s
Width : 1 920 pixels
Height : 876 pixels
Display aspect ratio : 2.2:1
Frame rate mode : Constant
Frame rate : 23.976 (24000/1001) FPS
Color space : YUV
Chroma subsampling : 4:2:0
Bit depth : 8 bits
Scan type : Progressive
Bits/(Pixel*Frame) : 0.189
Stream size : 2.55 GiB (86%)
Writing library : x264 core 148 r2744 b97ae06
Encoding settings : cabac=1 / ref=4 / deblock=1:-3:-3 / analyse=0x3:0x133 / me=umh / subme=10 / psy=1 / psy_rd=1.00:0.00 / mixed_ref=1 / me_range=48 / chroma_me=1 / trellis=2 / 8x8dct=1 / cqm=0 / deadzone=21,11 / fast_pskip=0 / chroma_qp_offset=-2 / threads=16 / lookahead_threads=4 / sliced_threads=0 / nr=0 / decimate=0 / interlaced=0 / bluray_compat=0 / constrained_intra=0 / bframes=9 / b_pyramid=0 / b_adapt=2 / b_bias=0 / direct=3 / weightb=1 / open_gop=0 / weightp=2 / keyint=250 / keyint_min=23 / scenecut=40 / intra_refresh=0 / rc_lookahead=60 / rc=crf / mbtree=0 / crf=18.0 / qcomp=0.60 / qpmin=0 / qpmax=69 / qpstep=4 / vbv_maxrate=62500 / vbv_bufsize=78125 / crf_max=0.0 / nal_hrd=none / filler=0 / ip_ratio=1.40 / pb_ratio=1.30 / aq=3:0.75
Default : Yes
Forced : No

Audio #1
ID : 2
Format : AC-3
Format/Info : Audio Coding 3
Commercial name : Dolby Digital
Codec ID : A_AC3
Duration : 48 min 29 s
Bit rate mode : Constant
Bit rate : 640 kb/s
Channel(s) : 6 channels
Channel layout : L R C LFE Ls Rs
Sampling rate : 48.0 kHz
Frame rate : 31.250 FPS (1536 SPF)
Compression mode : Lossy
Stream size : 222 MiB (7%)
Title : Кубик в кубе
Language : Russian
Service kind : Complete Main
Default : Yes
Forced : No

Audio #2
ID : 3
Format : E-AC-3
Format/Info : Enhanced AC-3
Commercial name : Dolby Digital Plus
Codec ID : A_EAC3
Duration : 48 min 1 s
Bit rate mode : Constant
Bit rate : 640 kb/s
Channel(s) : 6 channels
Channel layout : L R C LFE Ls Rs
Sampling rate : 48.0 kHz
Frame rate : 31.250 FPS (1536 SPF)
Compression mode : Lossy
Stream size : 220 MiB (7%)
Title : Original
Language : English
Service kind : Complete Main
Default : No
Forced : No

Text #1
ID : 4
Format : UTF-8
Codec ID : S_TEXT/UTF8
Codec ID/Info : UTF-8 Plain Text
Duration : 47 min 31 s
Bit rate : 118 b/s
Count of elements : 730
Stream size : 41.3 KiB (0%)
Title : Русские (Елена Гердова)
Language : Russian
Default : No
Forced : No

Text #2
ID : 5
Format : UTF-8
Codec ID : S_TEXT/UTF8
Codec ID/Info : UTF-8 Plain Text
Duration : 47 min 39 s
Bit rate : 83 b/s
Count of elements : 808
Stream size : 29.2 KiB (0%)
Title : Original
Language : English
Default : No
Forced : No

Text #3
ID : 6
Format : UTF-8
Codec ID : S_TEXT/UTF8
Codec ID/Info : UTF-8 Plain Text
Duration : 47 min 39 s
Bit rate : 92 b/s
Count of elements : 882
Stream size : 32.4 KiB (0%)
Title : Original (SDH)
Language : English
Default : No
Forced : No
скриншот  скриншот  скриншот  
скриншот  pb.wtf



Скачать Охотник за разумом через торрент https://i91.fastpic.ru/big/2019/1027/fe/f260d589186285a2685299977930aafe.jpeg Скачать фильм Охотник за разумом через торрент бесплантно в хорошем качестве Описание: Действие сериала происходит в 1979 году. В центре сюжета два агента ФБР, которые опрашивают находящихся в заключении серийных ... 10 10 6
Торрент: Зарегистрирован [2020-09-29 06:23] · скачан: 28 раз
Статус: √ проверено
Размер: 52.16 GB
Как cкачать? Как скачать Охотник за разумом через торрент | UTorrent

% Раздел Тема Автор DL S | L
Зарубежные сериалы [ 59.41 GB ] Охотник за разумом / Mindhunter / Сезон: 2 / Серии: 1-9 из 9 [2019 UHD WEBRip 2160p] DUB [SDI Media] bober100 Скачать
1 | 0
Зарубежные сериалы [ 14.05 GB ] Охотник за разумом / Mindhunter / Сезон: 2 / Серии: 1-9 из 9 [2019 WEB-DL 1080p] MVO [Jaskier] bober100 Скачать
1 | 0
Зарубежные сериалы [ 7.23 GB ] Охотник за разумом / Mindhunter / Сезон: 2 / Серии: 1-9 из 9 [2019 WEB-DLRip] MVO [LostFilm] bober100 Скачать
2 | 0
Зарубежные сериалы [ 8.96 GB ] Охотник за разумом / Mindhunter / Сезон: 2 / Серии: 1-9 из 9 [2019 WEB-DL 720p] killermax2013 Скачать
1 | 0
Зарубежные сериалы [ 6.53 GB ] Охотник за разумом / Mindhunter / Сезон: 2 / Серии: 1-9 из 9 [2019 WEB-DLRip] MVO [Jaskier] bober100 Скачать
1 | 0
Зарубежные сериалы [ 7.66 GB ] Охотник за разумом / Mindhunter / Сезон: 2 / Серии: 1-9 из 9 [2019 WEB-DL 720p] MVO bober100 Скачать
1 | 0
Фильмы без перевода [ 13.25 GB ] Охотник за разумом / Mindhunter / Сезон: 2 / Серии: 1- 9 из 9 [2019 WEB-DL 1080p] 2x[Sub] killermax2013 Скачать
1 | 0

28-11-2019 20:33  

Отключить всю рекламу на сайте

    Дорогой пользователь! Огромная просьба, поблагодарите релизера, оцените раздачу и оставьте свои комментарий, если Вы скачали Охотник за разумом через торрент бесплатно! Внесите свою лепту в развитие PiratBit!
    Комментировать посты могут только пользователи прошедшие не сложную регистрацию
    Показать сообщения:    

    Охотник за разумом через торрент
    Скачать бесплатно Охотник за разумом
    Охотник за разумом скачать торрент
    Охотник за разумом смотреть онлайн
    Cкачать фильм Охотник за разумом бесплатно
    Охотник за разумом скачать торрент в хорошем качестве
    Охотник за разумом смотреть онлайн бесплатно в хорошем качестве


    Вы не можете начинать темы
    Вы не можете отвечать на сообщения
    Вы не можете редактировать свои сообщения
    Вы не можете удалять свои сообщения
    Вы не можете голосовать в опросах
    Вы не можете прикреплять файлы к сообщениям
    Вы можете скачивать файлы