Ссылка на приватное зеркало нашего сайта всего за 1$. Внимание количество ограничено!!!

2 сезон

iTunes

1 сезон

1

2 сезон

2 сезон

iTunes

1 сезон

RePack

30

Новинка

ВАЖНО

ИГРА 18+

pack

RePack

MK11
pack

Забери бонус

RePack

jed

!!Акция!!

Alien_Rage

RePack

fifa19

RePack

Assassins Creed: Odyssey

RePack

NEED FOR SPEED™ PAYBACK

4 сезон

9 сезон

Бесстыжие 9 сезон

Все сериалы

все сериалы на PB.wtf

RePack

FAR CRY 5
  

Двухсотлетний человек / Bicentennial Man (Крис Коламбус) [1999, фантастика, драма, комедия, WEB-DL 1080p] DUB + 2xMVO + 3xAVO pb.wtf

Двухсотлетний человек через торрент pb.wtf

Раздают: 1 [ 0 KB/s ]
Размер: 12.09 GB | Добавлен: 1 год 1 мес. назад | Торрент скачан:64 раза
Скачать  

27-10-2019 19:15 Двухсотлетний человек Скачать торрент  

Двухсотлетний человек / Bicentennial Man
Год выхода: 1999
Страна: США , Германия
Жанр: Фантастика, драма, комедия
Продолжительность: 02:11:26
Перевод: Дублированный, профессиональный многоголосый, авторский одноголосый
Субтитры: Русские, украинские, английские
Режиссёр: Крис Коламбус
В ролях: Робин Уильямс, Эмбет Дэвидц, Сэм Нил, Оливер Платт, Кирстен Уоррен, Венди Крюсон, Халли Кейт Айзенберг, Линдзи Летерман, Анджела Лэндис, Джон Майкл Хиггинс
Описание: Начало нового тысячелетия; происходит прорыв в глобальных технологиях. Люди уже не заводят дома собак и кошек: они покупают себе роботов. Вот и семья Мартинов приобретает себе необычный подарок: робота нового поколения NDR-114, а в обычной жизни просто Эндрю. Купленный как прибор, запрограммированный для выполнения домашней работы, Эндрю вдруг начинает испытывать странные ощущения. Он еще не знает, что это называется чувствами.

rating

Качество: WEB-DL 1080p
Формат: MKV
Видео: MPEG4 AVC, 1920x1040, 10000 kbps, 23.976 fps
Аудио 01: Russian: 48 kHz, AC3, 5.1 ch, 448 kbps - DUB, Невафильм
Аудио 02: Russian: 48 kHz, AC3, 5.1 ch, 448 kbps - MVO, R5
Аудио 03: Russian: 48 kHz, AC3, 2.0 ch, 224 kbps - MVO, СТС
Аудио 04: Russian: 48 kHz, AC3, 2.0 ch, 224 kbps - AVO, Ю. Живов
Аудио 05: Russian: 48 kHz, AC3, 2.0 ch, 224 kbps - AVO, В. Сонькин
Аудио 06: Russian: 48 kHz, AC3, 5.1 ch, 448 kbps - AVO, В. Котов
Аудио 07: Ukrainian: 48 kHz, AC3, 5.1 ch, 448 kbps - MVO, 1+1
Аудио 08: Ukrainian: 48 kHz, AC3, 2.0 ch, 192 kbps - MVO, Интер
Аудио 09: Ukrainian: 48 kHz, AC3, 2.0 ch, 192 kbps - MVO, Новый канал
Аудио 10: English: 48 kHz, AC3, 5.1 ch, 448 kbps - Оригинал


• Исходник видео WEB-DL Amazon
• В дорожке №9 отсутствует первая минута фильма, а также финальные титры, поскольку канал их не показал.
Общее
Уникальный идентификатор : 193175711023730347245755048789678014935 (0x915449E43CFFEDF18948AD97586CC1D7)
Полное имя : Bicentennial.Man.1999.AMZN.WEB-DL.1080p.mkv
Формат : Matroska
Версия формата : Version 2
Размер файла : 12,1 Гбайт
Продолжительность : 2 ч. 11 м.
Общий поток : 13,2 Мбит/сек
Название фильма : Двухсотлетний человек (1999)
Дата кодирования : UTC 2018-03-08 12:26:37
Программа кодирования : mkvmerge v5.8.0 ('No Sleep / Pillow') built on Sep 2 2012 15:37:04
Библиотека кодирования : libebml v1.2.3 + libmatroska v1.3.0
Обложка : Yes
Attachments : cover.jpg

Видео
Идентификатор : 1
Формат : AVC
Формат/Информация : Advanced Video Codec
Профиль формата : High@L4
Параметр CABAC формата : Да
Параметр RefFrames формата : 4 кадра
Параметр GOP формата : M=4, N=48
Идентификатор кодека : V_MPEG4/ISO/AVC
Продолжительность : 2 ч. 11 м.
Вид битрейта : Постоянный
Битрейт : 10000 Кбит/сек
Ширина : 1920 пикселей
Высота : 1040 пикселей
Соотношение сторон : 1,85:1
Режим частоты кадров : Постоянный
Частота кадров : 23,976 (24000/1001) кадра/сек
Цветовое пространство : YUV
Субдискретизация насыщенности : 4:2:0
Битовая глубина : 8 бит
Тип развёртки : Прогрессивная
Бит/(Пиксели*Кадры) : 0.209
Размер потока : 8,82 Гбайт (73%)
Заголовок : Двухсотлетний человек (1999)
Язык : English
Default : Да
Forced : Нет
Цветовой диапазон : Limited
Основные цвета : BT.709
Характеристики трансфера : BT.709
Коэффициенты матрицы : BT.709

Аудио #1
Идентификатор : 2
Формат : AC-3
Формат/Информация : Audio Coding 3
Параметр Endianness формата : Big
Идентификатор кодека : A_AC3
Продолжительность : 2 ч. 11 м.
Вид битрейта : Постоянный
Битрейт : 448 Кбит/сек
Каналы : 6 каналов
Расположение каналов : Front: L C R, Side: L R, LFE
Частота : 48,0 КГц
Частота кадров : 31,250 кадров/сек (1536 SPF)
Битовая глубина : 16 бит
Метод сжатия : С потерями
Размер потока : 421 Мбайт (3%)
Заголовок : DUB, Невафильм
Язык : Russian
Default : Да
Forced : Нет

Аудио #2
Идентификатор : 3
Формат : AC-3
Формат/Информация : Audio Coding 3
Параметр Endianness формата : Big
Идентификатор кодека : A_AC3
Продолжительность : 2 ч. 11 м.
Вид битрейта : Постоянный
Битрейт : 448 Кбит/сек
Каналы : 6 каналов
Расположение каналов : Front: L C R, Side: L R, LFE
Частота : 48,0 КГц
Частота кадров : 31,250 кадров/сек (1536 SPF)
Битовая глубина : 16 бит
Метод сжатия : С потерями
Размер потока : 421 Мбайт (3%)
Заголовок : MVO, R5
Язык : Russian
Default : Нет
Forced : Нет

Аудио #3
Идентификатор : 4
Формат : AC-3
Формат/Информация : Audio Coding 3
Параметр Endianness формата : Big
Идентификатор кодека : A_AC3
Продолжительность : 2 ч. 11 м.
Вид битрейта : Постоянный
Битрейт : 224 Кбит/сек
Каналы : 2 канала
Расположение каналов : Front: L R
Частота : 48,0 КГц
Частота кадров : 31,250 кадров/сек (1536 SPF)
Битовая глубина : 16 бит
Метод сжатия : С потерями
Размер потока : 211 Мбайт (2%)
Заголовок : MVO, СТС
Язык : Russian
Default : Нет
Forced : Нет

Аудио #4
Идентификатор : 5
Формат : AC-3
Формат/Информация : Audio Coding 3
Параметр Endianness формата : Big
Идентификатор кодека : A_AC3
Продолжительность : 2 ч. 11 м.
Вид битрейта : Постоянный
Битрейт : 224 Кбит/сек
Каналы : 2 канала
Расположение каналов : Front: L R
Частота : 48,0 КГц
Частота кадров : 31,250 кадров/сек (1536 SPF)
Битовая глубина : 16 бит
Метод сжатия : С потерями
Размер потока : 211 Мбайт (2%)
Заголовок : AVO, Ю. Живов
Язык : Russian
Default : Нет
Forced : Нет

Аудио #5
Идентификатор : 6
Формат : AC-3
Формат/Информация : Audio Coding 3
Параметр Endianness формата : Big
Идентификатор кодека : A_AC3
Продолжительность : 2 ч. 11 м.
Вид битрейта : Постоянный
Битрейт : 224 Кбит/сек
Каналы : 2 канала
Расположение каналов : Front: L R
Частота : 48,0 КГц
Частота кадров : 31,250 кадров/сек (1536 SPF)
Битовая глубина : 16 бит
Метод сжатия : С потерями
Размер потока : 211 Мбайт (2%)
Заголовок : AVO, В. Сонькин
Язык : Russian
Default : Нет
Forced : Нет

Аудио #6
Идентификатор : 7
Формат : AC-3
Формат/Информация : Audio Coding 3
Параметр Endianness формата : Big
Идентификатор кодека : A_AC3
Продолжительность : 2 ч. 11 м.
Вид битрейта : Постоянный
Битрейт : 448 Кбит/сек
Каналы : 6 каналов
Расположение каналов : Front: L C R, Side: L R, LFE
Частота : 48,0 КГц
Частота кадров : 31,250 кадров/сек (1536 SPF)
Битовая глубина : 16 бит
Метод сжатия : С потерями
Размер потока : 421 Мбайт (3%)
Заголовок : AVO, В. Котов
Язык : Russian
Default : Нет
Forced : Нет

Аудио #7
Идентификатор : 8
Формат : AC-3
Формат/Информация : Audio Coding 3
Параметр Endianness формата : Big
Идентификатор кодека : A_AC3
Продолжительность : 2 ч. 11 м.
Вид битрейта : Постоянный
Битрейт : 448 Кбит/сек
Каналы : 6 каналов
Расположение каналов : Front: L C R, Side: L R, LFE
Частота : 48,0 КГц
Частота кадров : 31,250 кадров/сек (1536 SPF)
Битовая глубина : 16 бит
Метод сжатия : С потерями
Размер потока : 421 Мбайт (3%)
Заголовок : MVO, 1+1
Язык : Ukrainian
Default : Нет
Forced : Нет

Аудио #8
Идентификатор : 9
Формат : AC-3
Формат/Информация : Audio Coding 3
Параметр Endianness формата : Big
Идентификатор кодека : A_AC3
Продолжительность : 2 ч. 11 м.
Вид битрейта : Постоянный
Битрейт : 192 Кбит/сек
Каналы : 2 канала
Расположение каналов : Front: L R
Частота : 48,0 КГц
Частота кадров : 31,250 кадров/сек (1536 SPF)
Битовая глубина : 16 бит
Метод сжатия : С потерями
Размер потока : 181 Мбайт (1%)
Заголовок : MVO, Интер
Язык : Ukrainian
Default : Нет
Forced : Нет

Аудио #9
Идентификатор : 10
Формат : AC-3
Формат/Информация : Audio Coding 3
Параметр Endianness формата : Big
Идентификатор кодека : A_AC3
Продолжительность : 2 ч. 11 м.
Вид битрейта : Постоянный
Битрейт : 192 Кбит/сек
Каналы : 2 канала
Расположение каналов : Front: L R
Частота : 48,0 КГц
Частота кадров : 31,250 кадров/сек (1536 SPF)
Битовая глубина : 16 бит
Метод сжатия : С потерями
Размер потока : 181 Мбайт (1%)
Заголовок : MVO, Новый канал
Язык : Ukrainian
Default : Нет
Forced : Нет

Аудио #10
Идентификатор : 11
Формат : AC-3
Формат/Информация : Audio Coding 3
Параметр Endianness формата : Big
Идентификатор кодека : A_AC3
Продолжительность : 2 ч. 11 м.
Вид битрейта : Постоянный
Битрейт : 448 Кбит/сек
Каналы : 6 каналов
Расположение каналов : Front: L C R, Side: L R, LFE
Частота : 48,0 КГц
Частота кадров : 31,250 кадров/сек (1536 SPF)
Битовая глубина : 16 бит
Метод сжатия : С потерями
Размер потока : 421 Мбайт (3%)
Заголовок : Оригинал
Язык : English
Default : Нет
Forced : Нет

Текст #1
Идентификатор : 12
Формат : UTF-8
Идентификатор кодека : S_TEXT/UTF8
Идентификатор кодека/Информация : UTF-8 Plain Text
Заголовок : Russian
Язык : Russian
Default : Нет
Forced : Нет

Текст #2
Идентификатор : 13
Формат : UTF-8
Идентификатор кодека : S_TEXT/UTF8
Идентификатор кодека/Информация : UTF-8 Plain Text
Заголовок : Ukrainian
Язык : Ukrainian
Default : Нет
Forced : Нет

Текст #3
Идентификатор : 14
Формат : UTF-8
Идентификатор кодека : S_TEXT/UTF8
Идентификатор кодека/Информация : UTF-8 Plain Text
Заголовок : English
Язык : English
Default : Нет
Forced : Нет

Текст #4
Идентификатор : 15
Формат : UTF-8
Идентификатор кодека : S_TEXT/UTF8
Идентификатор кодека/Информация : UTF-8 Plain Text
Заголовок : English, SDH
Язык : English
Default : Нет
Forced : Нет

Меню
00:00:00.000 : :Opening Credits
00:06:37.000 : :The Three Laws of Robotics
00:13:05.000 : :A Leap of Faith
00:23:03.000 : :A Visit to Northam Robotics
00:29:21.000 : :The Facts of Life
00:37:30.000 : :A Duet In Time
00:47:13.000 : :Little Miss's Wedding Day
00:56:07.000 : :Talk of Freedom
01:00:07.000 : :Saying Goodbye to Sir
01:06:45.000 : :Andrew's Journey
01:15:23.000 : :Andrew Returns Home
01:22:29.000 : :Yet Another Goodbye
01:33:28.000 : :A Human Conversation
01:45:37.000 : :Doing the Wrong Thing
01:54:26.000 : :Welcome to the Human Condition
02:01:21.000 : :A Destiny Fulfilled
pb.wtf



Скачать Двухсотлетний человек через торрент https://i1.imageban.ru/out/2019/10/27/023c62ba210df269af38e23cf928cd65.png Скачать фильм Двухсотлетний человек через торрент бесплантно в хорошем качестве Описание: Начало нового тысячелетия; происходит прорыв в глобальных технологиях. Люди уже не заводят дома собак и кошек: они покупают себе ... 9.5 10 10
Info! Золотая раздача, скачанное не засчитывается.
Торрент: Зарегистрирован [2019-10-27 19:15] · скачан: 64 раз
Статус: √ проверено
Размер: 12.09 GB
Как cкачать? Как скачать Двухсотлетний человек через торрент | qTorrent

28-11-2019 20:33  

Отключить всю рекламу на сайте

    Дорогой пользователь! Огромная просьба, поблагодарите релизера, оцените раздачу и оставьте свои комментарий, если Вы скачали Двухсотлетний человек через торрент бесплатно! Внесите свою лепту в развитие PiratBit!
    Комментировать посты могут только пользователи прошедшие не сложную регистрацию
    Показать сообщения:    

    Двухсотлетний человек через торрент
    Скачать бесплатно Двухсотлетний человек
    Двухсотлетний человек скачать торрент
    Двухсотлетний человек смотреть онлайн
    Cкачать фильм Двухсотлетний человек бесплатно
    Двухсотлетний человек скачать торрент в хорошем качестве
    Двухсотлетний человек смотреть онлайн бесплатно в хорошем качестве


    Вы не можете начинать темы
    Вы не можете отвечать на сообщения
    Вы не можете редактировать свои сообщения
    Вы не можете удалять свои сообщения
    Вы не можете голосовать в опросах
    Вы не можете прикреплять файлы к сообщениям
    Вы можете скачивать файлы