новый адрес
Ссылка на приватное зеркало всего за 1$. Внимание количество ограничено!!!

iTunes

1+1

iTunes

мы

iTunes

1

iTunes

Чернобыль

iTunes

Ральф против интернета

Лицензия

ПШазам

Лицензия

Оно 2

Лицензия

30
pack

Вам бонус

ВАЖНО

!!Акция!!

Alien_RageХит недели

RePack

Resident Evil 21

ИГРА 18+

pack

RePack

jed

!!Акция!!

Alien_Rage

RePack

fifa19

RePack

Assassins Creed: Odyssey

RePack

NEED FOR SPEED™ PAYBACK

3 сезон

9 сезон

Бесстыжие 9 сезон

Все сериалы

все сериалы на PB.wtf

RePack

FAR CRY 5
Ребята, катастрофически не хватает 1900р. для оплаты серверов за Октябрь (всвязи с блокировками трафик упал в 3 раза), 1-2р., выручайте.
  

Страшные истории для рассказа в темноте / Scary Stories to Tell in the Dar (Андре Овредал) [2019, Ужасы, триллер, BDRip-AVC] DUB [iTunes] pb.wtf

Страшные истории для рассказа в темноте через торрент pb.wtf

Раздают: 4 [ 338 KB/s ]
Размер: 1.97 GB | Добавлен: 1 мес. 8 д. назад | Торрент скачан:141 раз
Скачать  

28-10-2019 05:05 Страшные истории для рассказа в темноте Скачать торрент  

Страшные истории для рассказа в темноте / Scary Stories to Tell in the Dar«Экранизация культовой трилогии ужасов»
Год выпуска: 2019
Страна: США, Канада, Китай
Жанр: Ужасы, триллер
Продолжительность: 01:47:57
Перевод: Дублированный | iTuens
Субтитры: Английские (полные, SDH)

Режиссер: Андре Овредал

rating

В ролях: Зои Маргарет Коллетти, Майкл Гарза, Гэбриел Раш, Остин Абрамс, Дин Норрис, Джил Беллоуз, Лоррейн Туссен, Остин Зажур, Натали Гэнзхорн, Кэтлин Поллард

Описание: Компании подростков предстоит разгадать тайну зловещих смертей, которые наводят ужас на всю округу. Они должны преодолеть страх, чтобы спасти свой город.

Качество: BDRip-AVC
Формат: MKV

Видео: 1024x428 (2.40:1), 23,976 fps, x264 ~1 787 kbps avg, 0.170 bit/pixel
Аудио#1: 48 kHz, AC3 Dolby Digital, 3/2 (L,C,R,l,r) + LFE ch, ~384.00 kbps avg | RUS (iTunes)
Аудио#2: 48 kHz, AC3 Dolby Digital, 3/2 (L,C,R,l,r) + LFE ch, ~448.00 kbps avg | ENG
скриншот  скриншот  скриншот  

скриншот  скриншот  скриншот  

Общее
Уникальный идентификатор : 145834260094355755936578860696648081535 (0x6DB6A826E262C0F3A8469A98A0A4E07F)
Полное имя : F:OlLanDGroupScary.Stories.to.Tell.in.the.Dark.2019.BDRip(AVC).OlLanDGroup.mkv
Формат : Matroska
Версия формата : Version 4 / Version 2
Размер файла : 1,97 Гбайт
Продолжительность : 1 ч. 47 м.
Общий поток : 2608 Кбит/сек
Название фильма : Scary.Stories.to.Tell.in.the.Dark.2019 #TorpedoUK#
Дата кодирования : UTC 2019-10-28 02:13:48
Программа кодирования : mkvmerge v29.0.0 ('Like It Or Not') 64-bit
Библиотека кодирования : libebml v1.3.6 + libmatroska v1.4.9

Видео
Идентификатор : 1
Формат : AVC
Формат/Информация : Advanced Video Codec
Профиль формата : High@L4.1
Параметр CABAC формата : Да
Параметр ReFrames формата : 10 кадров
Идентификатор кодека : V_MPEG4/ISO/AVC
Продолжительность : 1 ч. 47 м.
Битрейт : 1787 Кбит/сек
Ширина : 1024 пикселя
Высота : 428 пикселей
Соотношение сторон : 2,40:1
Режим частоты кадров : Постоянный
Частота кадров : 23,976 (24000/1001) кадра/сек
Цветовое пространство : YUV
Субдискретизация насыщенности : 4:2:0
Битовая глубина : 8 бит
Тип развёртки : Прогрессивная
Бит/(Пиксели*Кадры) : 0.170
Размер потока : 1,34 Гбайт (68%)
Библиотека кодирования : x264 core 146 r2538 121396c
Настройки программы : cabac=1 / ref=10 / deblock=1:-3:-3 / analyse=0x3:0x113 / me=umh / subme=11 / psy=1 / psy_rd=0.97:0.05 / mixed_ref=1 / me_range=48 / chroma_me=1 / trellis=2 / 8x8dct=1 / cqm=0 / deadzone=21,11 / fast_pskip=1 / chroma_qp_offset=-6 / threads=6 / lookahead_threads=1 / sliced_threads=0 / nr=0 / decimate=1 / interlaced=0 / bluray_compat=0 / constrained_intra=0 / bframes=11 / b_pyramid=2 / b_adapt=2 / b_bias=0 / direct=3 / weightb=1 / open_gop=0 / weightp=2 / keyint=240 / keyint_min=23 / scenecut=40 / intra_refresh=0 / rc_lookahead=40 / rc=2pass / mbtree=0 / bitrate=1787 / ratetol=1.0 / qcomp=0.60 / qpmin=0 / qpmax=69 / qpstep=4 / cplxblur=20.0 / qblur=0.5 / vbv_maxrate=50000 / vbv_bufsize=62500 / nal_hrd=none / filler=0 / ip_ratio=1.40 / pb_ratio=1.30 / aq=1:1.00
Язык : English
Default : Да
Forced : Нет

Аудио #1
Идентификатор : 2
Формат : AC-3
Формат/Информация : Audio Coding 3
Расширение режима : CM (complete main)
Параметр Endianness формата : Big
Идентификатор кодека : A_AC3
Продолжительность : 1 ч. 47 м.
Вид битрейта : Постоянный
Битрейт : 384 Кбит/сек
Каналы : 6 каналов
Расположение каналов : Front: L C R, Side: L R, LFE
Частота : 48,0 КГц
Частота кадров : 31,250 кадров/сек (1536 spf)
Битовая глубина : 16 бит
Метод сжатия : С потерями
Размер потока : 297 Мбайт (15%)
Заголовок : DUB [iTunes]
Язык : Russian
Default : Да
Forced : Нет

Аудио #2
Идентификатор : 3
Формат : AC-3
Формат/Информация : Audio Coding 3
Расширение режима : CM (complete main)
Параметр Endianness формата : Big
Идентификатор кодека : A_AC3
Продолжительность : 1 ч. 47 м.
Вид битрейта : Постоянный
Битрейт : 448 Кбит/сек
Каналы : 6 каналов
Расположение каналов : Front: L C R, Side: L R, LFE
Частота : 48,0 КГц
Частота кадров : 31,250 кадров/сек (1536 spf)
Битовая глубина : 16 бит
Метод сжатия : С потерями
Размер потока : 346 Мбайт (17%)
Заголовок : [Original]
Язык : English
Default : Нет
Forced : Нет

Текст #1
Идентификатор : 4
Формат : UTF-8
Идентификатор кодека : S_TEXT/UTF8
Идентификатор кодека/Информация : UTF-8 Plain Text
Продолжительность : 1 ч. 39 м.
Битрейт : 45 бит/сек
Count of elements : 1246
Размер потока : 33,0 Кбайт (0%)
Заголовок : Full
Язык : English
Default : Нет
Forced : Нет

Текст #2
Идентификатор : 5
Формат : UTF-8
Идентификатор кодека : S_TEXT/UTF8
Идентификатор кодека/Информация : UTF-8 Plain Text
Продолжительность : 1 ч. 40 м.
Битрейт : 56 бит/сек
Count of elements : 1526
Размер потока : 41,3 Кбайт (0%)
Заголовок : SDH
Язык : English
Default : Нет
Forced : Нет

Меню
00:00:00.000 : :Глава 01
00:05:44.385 : :Глава 02
00:13:23.052 : :Глава 03
00:18:52.130 : :Глава 04
00:25:34.741 : :Глава 05
00:28:31.167 : :Глава 06
00:36:17.300 : :Глава 07
00:47:06.281 : :Глава 08
00:54:17.170 : :Глава 09
00:58:36.304 : :Глава 10
01:02:36.377 : :Глава 11
01:11:04.676 : :Глава 12
01:17:59.424 : :Глава 13
01:24:33.902 : :Глава 14
01:29:53.179 : :Глава 15
01:38:30.279 : :Глава 16

pb.wtf



Скачать Страшные истории для рассказа в темноте через торрент https://a.radikal.ru/a12/1910/20/44437e3e1531.png Скачать фильм Страшные истории для рассказа в темноте через торрент бесплантно в хорошем качестве Описание: Компании подростков предстоит разгадать тайну зловещих смертей, которые наводят ужас на всю округу. Они должны преодолеть страх, ... 10 10 5
Торрент: Зарегистрирован [2019-10-28 05:05] · скачан: 141 раз
Статус: √ проверено
Размер: 1.97 GB
Как cкачать? Как скачать Страшные истории для рассказа в темноте через торрент | qTorrent

% Раздел Тема Автор DL S | L
Фильмы 2019 [DVDrip, WEB-DLRip, HDrip] (DUB, MVO) [ 699 MB ] Страшные истории для рассказа в темноте / Scary Stories to Tell in the Dark [2019 HDRip ""] coc900 Скачать
2 | 0
Фильмы [HD 720p, 1080p] (Хороший звук DUB, MVO) [ 3.86 GB ] Страшные истории для рассказа в темноте / Scary Stories to Tell in the Dar [2019 BDRip 720p] DUB [iTuens] bober100 Скачать
3 | 0
Фильмы [HD 720p, 1080p] (Хороший звук DUB, MVO) [ 7.33 GB ] Страшные истории для рассказа в темноте / Scary Stories to Tell in the Dar [2019 BDRip 1080p] DUB [iTuens] bober100 Скачать
2 | 0
Фильмы 2019 [DVDrip, WEB-DLRip, HDrip] (DUB, MVO) [ 1.41 GB ] Страшные истории для рассказа в темноте / Scary Stories to Tell in the Dar [2019 BDRip] bober100 Скачать
5 | 0
Фильмы (Blu-ray, BD-Remux, HDDVD) [ 28.61 GB ] Страшные истории для рассказа в темноте / Scary Stories to Tell in the Dar [2019 BD Remux 1080p] DUB [iTuens] bober100 Скачать
1 | 0
Фильмы [HD 720p, 1080p] (Хороший звук DUB, MVO) [ 9.81 GB ] Страшные истории для рассказа в темноте / Scary Stories to Tell in the Dar [2019 UHD BDRip 1080p] DUB [iTuens] bober100 Скачать
2 | 0
Ultra HD (UHD: 2K, 4K, 8K) — видео сверхвысокой чёткости [ 50.53 GB ] Страшные истории для рассказа в темноте / Scary Stories to Tell in the Dark [2019 UHD BDRemux 2160p] sheker187 Скачать
3 | 0
Отключить всю рекламу на сайте
    Дорогой пользователь! Огромная просьба, поблагодарите релизера, оцените раздачу и оставьте свои комментарий, если Вы скачали Страшные истории для рассказа в темноте через торрент бесплатно! Внесите свою лепту в развитие PiratBit!
    Комментировать посты могут только пользователи прошедшие не сложную регистрацию
    Показать сообщения:    

    Страшные истории для рассказа в темноте через торрент
    Скачать бесплатно Страшные истории для рассказа в темноте
    Страшные истории для рассказа в темноте скачать торрент
    Страшные истории для рассказа в темноте смотреть онлайн
    Cкачать фильм Страшные истории для рассказа в темноте бесплатно
    Страшные истории для рассказа в темноте скачать торрент в хорошем качестве
    Страшные истории для рассказа в темноте смотреть онлайн бесплатно в хорошем качестве


    Вы не можете начинать темы
    Вы не можете отвечать на сообщения
    Вы не можете редактировать свои сообщения
    Вы не можете удалять свои сообщения
    Вы не можете голосовать в опросах
    Вы не можете прикреплять файлы к сообщениям
    Вы можете скачивать файлы