новый адрес
Ссылка на приватное зеркало всего за 1$. Внимание количество ограничено!!!

iTunes

1+1

iTunes

мы

iTunes

1

iTunes

Чернобыль

iTunes

Ральф против интернета

Лицензия

ПШазам

Лицензия

Оно 2

Лицензия

30
pack

Вам бонус

ВАЖНО

!!Акция!!

Alien_RageХит недели

RePack

Resident Evil 21

ИГРА 18+

pack

RePack

jed

!!Акция!!

Alien_Rage

RePack

fifa19

RePack

Assassins Creed: Odyssey

RePack

NEED FOR SPEED™ PAYBACK

3 сезон

9 сезон

Бесстыжие 9 сезон

Все сериалы

все сериалы на PB.wtf

RePack

FAR CRY 5
Ребята, катастрофически не хватает 1900р. для оплаты серверов за Октябрь (всвязи с блокировками трафик упал в 3 раза), 1-2р., выручайте.
  

Кадавр / The Possession of Hannah Grace (Дидерик Ван Ружен) [2018, ужасы, триллер, детектив, BDRip-AVC от OlLanDGroup] DUB [Лицензия] pb.wtf

Кадавр через торрент pb.wtf

Размер: 746 MB | Добавлен: 1 мес. 8 д. назад | Торрент скачан:71 раз
Скачать  

28-10-2019 06:10 Кадавр Скачать торрент  

Кадавр / The Possession of Hannah Grace Год выпуска: 2018
Страна: США
Жанр: ужасы, триллер, детектив
Продолжительность: 01:25:45

Перевод: Дублированный | Лицензия
Субтитры: Русские (форс., полные)

Режиссер: Дидерик Ван Ружен


rating

В ролях:
Шэй Митчелл, Грэй Дэймон, Кирби Джонсон, Ник Тун, Луис Хертэм, Стана Катик, Максимиллиан МакНамара, Джейкоб Минг-Трент, Джеймс А. Уотсон мл., Марианн Байяр

Описание:
Во время обряда экзорцизма одержимая Ханна Грэйс убивает священника, после чего её отец сам душит дочь подушкой. Бывшая полицейская Меган Рид посещает группу анонимных алкоголиков, но никак не может избавиться от видений прошлого. Она устраивается работать по ночам в морг городской больницы Бостона, и в первую же смену туда поступает изуродованное тело девушки. Вскоре Меган начинает казаться, что в пустых коридорах морга кто-то есть, и с этим телом определённо что-то не так.

Качество: BDRip-AVC
Формат: MKV

Видео: 720x304 (2.35:1), 23.976 fps, x264 ~1 143 kbps avg, 0.218 bit/pixel
Аудио: 48 kHz, HE-AAC, 2 ch, ~72 kbps avg | RUS (Лицензия)

Релиз от:
General
Unique ID : 139167918097178149608329413401462442623 (0x68B2C41D90D9684D33F05A1BC50C0A7F)
Complete name : D:\OlLanDGroup\The.Possession.of.Hannah.Grace.2018.BDRip(AVC).745Mb.OllanDGroup.mkv
Format : Matroska
Format version : Version 4
File size : 746 MiB
Duration : 1 h 25 min
Overall bit rate : 1 217 kb/s
Movie name : The.Possession.of.Hannah.Grace.2018.BDRip(AVC).745Mb.OllanDGroup#Skandar#
Encoded date : UTC 2019-10-28 01:24:23
Writing application : mkvmerge v31.0.0 ('Dolores In A Shoestand') 64-bit
Writing library : libebml v1.3.6 + libmatroska v1.4.9
Cover : Yes
Attachments : Cover - The.Possession.Of.Hannah.Grace.png

Video
ID : 1
Format : AVC
Format/Info : Advanced Video Codec
Format profile : High@L4.1
Format settings : CABAC / 10 Ref Frames
Format settings, CABAC : Yes
Format settings, ReFrames : 10 frames
Codec ID : V_MPEG4/ISO/AVC
Duration : 1 h 25 min
Bit rate : 1 143 kb/s
Width : 720 pixels
Height : 304 pixels
Display aspect ratio : 2.35:1
Frame rate mode : Constant
Frame rate : 23.976 (24000/1001) FPS
Color space : YUV
Chroma subsampling : 4:2:0
Bit depth : 8 bits
Scan type : Progressive
Bits/(Pixel*Frame) : 0.218
Stream size : 701 MiB (94%)
Title : The.Possession.of.Hannah.Grace.2018.BDRip(AVC).745Mb.OllanDGroup#Skandar#
Writing library : x264 core 146 r2538 121396c
Encoding settings : cabac=1 / ref=10 / deblock=1:-3:-3 / analyse=0x3:0x133 / me=umh / subme=11 / psy=1 / psy_rd=0.97:0.05 / mixed_ref=1 / me_range=48 / chroma_me=1 / trellis=2 / 8x8dct=1 / cqm=0 / deadzone=21,11 / fast_pskip=0 / chroma_qp_offset=-3 / threads=6 / lookahead_threads=1 / sliced_threads=0 / nr=0 / decimate=0 / interlaced=0 / bluray_compat=0 / constrained_intra=0 / bframes=11 / b_pyramid=2 / b_adapt=2 / b_bias=0 / direct=3 / weightb=1 / open_gop=0 / weightp=2 / keyint=240 / keyint_min=23 / scenecut=40 / intra_refresh=0 / rc_lookahead=40 / rc=2pass / mbtree=0 / bitrate=1143 / ratetol=1.0 / qcomp=0.60 / qpmin=0 / qpmax=69 / qpstep=4 / cplxblur=20.0 / qblur=0.5 / vbv_maxrate=50000 / vbv_bufsize=62500 / nal_hrd=none / filler=0 / ip_ratio=1.40 / pb_ratio=1.30 / aq=1:1.00
Default : Yes
Forced : No

Audio
ID : 2
Format : AAC LC SBR
Format/Info : Advanced Audio Codec Low Complexity with Spectral Band Replication
Commercial name : HE-AAC
Format settings : Explicit
Codec ID : A_AAC-2
Duration : 1 h 25 min
Bit rate : 72.0 kb/s
Channel(s) : 2 channels
Channel layout : L R
Sampling rate : 48.0 kHz
Frame rate : 23.438 FPS (2048 SPF)
Compression mode : Lossy
Delay relative to video : 31 ms
Stream size : 44.2 MiB (6%)
Title : DUB [License]
Language : Russian
Default : Yes
Forced : No

Text #1
ID : 3
Format : UTF-8
Codec ID : S_TEXT/UTF8
Codec ID/Info : UTF-8 Plain Text
Duration : 24 min 15 s
Bit rate : 2 b/s
Count of elements : 9
Stream size : 444 Bytes (0%)
Title : Forced
Language : Russian
Default : Yes
Forced : No

Text #2
ID : 4
Format : UTF-8
Codec ID : S_TEXT/UTF8
Codec ID/Info : UTF-8 Plain Text
Duration : 1 h 24 min
Bit rate : 49 b/s
Count of elements : 626
Stream size : 30.7 KiB (0%)
Title : Full
Language : Russian
Default : No
Forced : No

Menu
00:00:00.000 : en:Chapter 01
00:05:30.955 : en:Chapter 02
00:10:07.231 : en:Chapter 03
00:15:24.548 : en:Chapter 04
00:21:30.080 : en:Chapter 05
00:26:07.357 : en:Chapter 06
00:31:27.343 : en:Chapter 07
00:36:12.211 : en:Chapter 08
00:41:44.960 : en:Chapter 09
00:47:07.199 : en:Chapter 10
00:51:57.823 : en:Chapter 11
00:56:37.602 : en:Chapter 12
01:03:44.278 : en:Chapter 13
01:08:01.410 : en:Chapter 14
01:13:25.859 : en:Chapter 15
01:20:45.423 : en:Chapter 16
pb.wtf



Скачать Кадавр через торрент https://i110.fastpic.ru/big/2019/0305/f8/8fb285fb1df7bc7df1e9189a216773f8.jpg Скачать фильм Кадавр через торрент бесплантно в хорошем качестве Описание: Во время обряда экзорцизма одержимая Ханна Грэйс убивает священника, после чего её отец сам душит дочь подушкой. Бывшая ... 10 10 2
Торрент: Зарегистрирован [2019-10-28 06:10] · скачан: 71 раз
Статус: √ проверено
Размер: 746 MB
Как cкачать? Как скачать Кадавр через торрент | qTorrent

% Раздел Тема Автор DL S | L
Фильмы 2018 [DVDrip, WEB-DLRip, HDrip] (DUB, MVO) [ 1.46 GB ] Кадавр / The Possession of Hannah Grace [2018 BDRip] - [] Twi7ter Скачать
1 | 0
Фильмы [HD 720p, 1080p] (Хороший звук DUB, MVO) [ 2.83 GB ] Кадавр / The Possession of Hannah Grace [2018 BDRip 720p] - ExKinoRay Enigma2010 Скачать
3 | 0
T Фильмы 2018 [DVDrip, WEB-DLRip, HDrip] (DUB, MVO) [ 1.3 GB ] Кадавр / The Possession of Hannah Grace [2018 BDRip] MVO [HDRezka] - ExKinoRay Enigma2010 Скачать
2 | 0
Фильмы 2018 [DVDrip, WEB-DLRip, HDrip] (DUB, MVO) [ 1.83 GB ] Кадавр / The Possession of Hannah Grace [2018 BDRip-AVC] DUB [] +MVO [HDrezka Studio] bober100 Скачать
1 | 0
Фильмы [HD 720p, 1080p] (Хороший звук DUB, MVO) [ 6.72 GB ] Кадавр / The Possession of Hannah Grace [2018 BDRip 1080p] DUB [] +MVO [HDrezka Studio] bober100 Скачать
2 | 0
T Фильмы 2018 [DVDrip, WEB-DLRip, HDrip] (DUB, MVO) [ 1.2 GB ] Кадавр / The Possession of Hannah Grace [2018 BDRip-AVC] MVO [HDRezka] - ExKinoRay Enigma2010 Скачать
2 | 0
Отключить всю рекламу на сайте
    Дорогой пользователь! Огромная просьба, поблагодарите релизера, оцените раздачу и оставьте свои комментарий, если Вы скачали Кадавр через торрент бесплатно! Внесите свою лепту в развитие PiratBit!
    Комментировать посты могут только пользователи прошедшие не сложную регистрацию
    Показать сообщения:    

    Кадавр через торрент
    Скачать бесплатно Кадавр
    Кадавр скачать торрент
    Кадавр смотреть онлайн
    Cкачать фильм Кадавр бесплатно
    Кадавр скачать торрент в хорошем качестве
    Кадавр смотреть онлайн бесплатно в хорошем качестве


    Вы не можете начинать темы
    Вы не можете отвечать на сообщения
    Вы не можете редактировать свои сообщения
    Вы не можете удалять свои сообщения
    Вы не можете голосовать в опросах
    Вы не можете прикреплять файлы к сообщениям
    Вы можете скачивать файлы