Ссылка на приватное зеркало нашего сайта всего за 1$. Внимание количество ограничено!!!

2 сезон

iTunes

1 сезон

1

2 сезон

2 сезон

iTunes

1 сезон

RePack

30

Ultimate

ВАЖНО

ИГРА 18+

pack

RePack

MK11
pack

Забери бонус

RePack

jed

!!Акция!!

Alien_Rage

RePack

fifa19

RePack

Assassins Creed: Odyssey

RePack

NEED FOR SPEED™ PAYBACK

4 сезон

9 сезон

Бесстыжие 9 сезон

Все сериалы

все сериалы на PB.wtf

RePack

FAR CRY 5
  

Танцуй со мной / Dance with Me (Рэнда Хейнс) [1998, мелодрама, драма, музыка, WEB-DL 1080p] DVO - KORSAR pb.wtf

Танцуй со мной через торрент pb.wtf

Размер: 11.91 GB | Добавлен: 1 год 1 мес. назад | Торрент скачан:12 раз
Скачать  

28-10-2019 14:14 Танцуй со мной Скачать торрент  

Танцуй со мной / Dance with Me
Год выпуска: 1998
Страна: США
Жанр: Мелодрама, драма, музыка
Продолжительность: 02:06:51
Перевод: Профессиональный двухголосый
Субтитры: Английские, испанские, немецкие
Режиссёр: Рэнда Хейнс
В ролях: Ванесса Уильямс, Чайянне, Крис Кристофферсон, Джоан Плаурайт, Джейн Краковски, Бет Грант, Гарри Гронер, Уильям Маркес, Скот Паетти, Рик Валенсуела, Билл Эпплбаум, Анджело Паган
Описание: В танцевальной студии, которая готовится к открытому чемпионату мира по бальным танцам в Лас-Вегасе, появляется молодой кубинец Рафаэль. Он приехал в Америку, чтобы осуществить свою заветную мечту. Директор студии возлагает на одаренного юношу большие надежды. Под руководством красавицы Руби, Рафаэль начинает готовиться к будущему состязанию. Она опытный инструктор, но ее безупречной технике не хватает главного - жизни.

rating

Качество: WEB-DL 1080p
Формат: MKV
Видео: MPEG-4 AVC, 12600 Кбит/сек, 1920x1080, 23.976 Кадр/сек
Аудио 1: Russian: AC3, 2 ch, 192 Кбит/сек - DVO
Аудио 2: English: AC3, 6 ch, 384 Кбит/сек - Оригинал

Релиз от:


Общее
Уникальный идентификатор : 241811434958596084518831997479253460029 (0xB5EB303796721E969B1708C3E1C4443D)
Полное имя : Танцуй.со.мной.1998.WEB-DL.1080p.mkv
Формат : Matroska
Версия формата : Version 2
Размер файла : 11,9 Гбайт
Продолжительность : 2 ч. 6 м.
Режим общего битрейта : Переменный
Общий поток : 13,4 Мбит/сек
Дата кодирования : UTC 2018-07-22 01:38:53
Программа кодирования : mkvmerge v5.8.0 ('No Sleep / Pillow') built on Sep 2 2012 15:37:04
Библиотека кодирования : libebml v1.2.3 + libmatroska v1.3.0

Видео
Идентификатор : 1
Формат : AVC
Формат/Информация : Advanced Video Codec
Профиль формата : High@L4
Настройки формата : CABAC / 4 Ref Frames
Параметр CABAC формата : Да
Параметр RefFrames формата : 4 кадра
Идентификатор кодека : V_MPEG4/ISO/AVC
Продолжительность : 2 ч. 6 м.
Вид битрейта : Переменный
Битрейт : 12,6 Мбит/сек
Максимальный битрейт : 15,0 Мбит/сек
Ширина : 1920 пикселей
Высота : 1080 пикселей
Соотношение сторон : 16:9
Режим частоты кадров : Постоянный
Частота кадров : 23,976 (24000/1001) кадра/сек
Цветовое пространство : YUV
Субдискретизация насыщенности : 4:2:0
Битовая глубина : 8 бит
Тип развёртки : Прогрессивная
Бит/(Пиксели*Кадры) : 0.253
Размер потока : 11,2 Гбайт (94%)
Библиотека кодирования : x264 core 148 r2623 d5b2374
Настройки программы : cabac=1 / ref=4 / deblock=1:-1:-1 / analyse=0x3:0x133 / me=umh / subme=9 / psy=1 / psy_rd=1.00:0.15 / mixed_ref=1 / me_range=24 / chroma_me=1 / trellis=2 / 8x8dct=1 / cqm=0 / deadzone=21,11 / fast_pskip=1 / chroma_qp_offset=-3 / threads=34 / lookahead_threads=5 / sliced_threads=0 / nr=150 / decimate=1 / interlaced=0 / bluray_compat=0 / constrained_intra=0 / bframes=8 / b_pyramid=2 / b_adapt=2 / b_bias=0 / direct=3 / weightb=1 / open_gop=0 / weightp=2 / keyint=120 / keyint_min=61 / scenecut=0 / intra_refresh=0 / rc_lookahead=120 / rc=crf / mbtree=1 / crf=18.0 / qcomp=0.60 / qpmin=0 / qpmax=69 / qpstep=4 / vbv_maxrate=15000 / vbv_bufsize=31250 / crf_max=0.0 / nal_hrd=vbr / filler=0 / ip_ratio=1.40 / aq=3:1.00
Язык : English
Default : Да
Forced : Нет
Цветовой диапазон : Limited
Основные цвета : BT.709
Характеристики трансфера : BT.709
Коэффициенты матрицы : BT.709

Аудио #1
Идентификатор : 2
Формат : AC-3
Формат/Информация : Audio Coding 3
Идентификатор кодека : A_AC3
Продолжительность : 2 ч. 6 м.
Вид битрейта : Постоянный
Битрейт : 192 Кбит/сек
Каналы : 2 канала
Расположение каналов : Front: L R
Частота : 48,0 КГц
Частота кадров : 31,250 кадров/сек (1536 SPF)
Битовая глубина : 16 бит
Метод сжатия : С потерями
Размер потока : 174 Мбайт (1%)
Заголовок : DVO
Язык : Russian
По умолчанию : Да
Принудительно : Нет

Аудио #2
Идентификатор : 3
Формат : AC-3
Формат/Информация : Audio Coding 3
Идентификатор кодека : A_AC3
Продолжительность : 2 ч. 6 м.
Вид битрейта : Постоянный
Битрейт : 384 Кбит/сек
Каналы : 6 каналов
Расположение каналов : Front: L C R, Side: L R, LFE
Частота : 48,0 КГц
Частота кадров : 31,250 кадров/сек (1536 SPF)
Битовая глубина : 16 бит
Метод сжатия : С потерями
Размер потока : 348 Мбайт (3%)
Заголовок : Original
Язык : English
По умолчанию : Нет
Принудительно : Нет

Текст #1
Идентификатор : 4
Формат : UTF-8
Идентификатор кодека : S_TEXT/UTF8
Идентификатор кодека/Информация : UTF-8 Plain Text
Язык : English
По умолчанию : Нет
Принудительно : Нет

Текст #2
Идентификатор : 5
Формат : UTF-8
Идентификатор кодека : S_TEXT/UTF8
Идентификатор кодека/Информация : UTF-8 Plain Text
Заголовок : SDH
Язык : English
По умолчанию : Нет
Принудительно : Нет

Текст #3
Идентификатор : 6
Формат : UTF-8
Идентификатор кодека : S_TEXT/UTF8
Идентификатор кодека/Информация : UTF-8 Plain Text
Язык : Spanish
По умолчанию : Нет
Принудительно : Нет

Текст #4
Идентификатор : 7
Формат : UTF-8
Идентификатор кодека : S_TEXT/UTF8
Идентификатор кодека/Информация : UTF-8 Plain Text
Язык : German
По умолчанию : Нет
Принудительно : Нет

Меню
00:00:00.000 : en:01. Start
00:08:29.041 : en:02. Ruby
00:11:12.838 : en:03. The Dance Studio
00:12:53.205 : en:04. John Burnett
00:18:23.969 : en:05. Criticizing Ruby
00:25:07.922 : en:06. Weekly Party
00:34:16.654 : en:07. Club Titon
00:43:00.994 : en:08. Race Truck
00:49:15.318 : en:09. Backyard Party
00:54:57.427 : en:10. Return Engagement
01:00:39.902 : en:11. Seeing Ruby Home
01:03:17.927 : en:12. Drying Off
01:09:15.684 : en:13. Ballet Training
01:13:55.764 : en:14. Ruby's Plans
01:15:34.563 : en:15. Fishing For Answers
01:22:34.983 : en:16. Dance Championships
01:24:46.047 : en:17. Tango
01:25:41.235 : en:18. Going Home
01:29:13.881 : en:19. "Why Don't You Do Right"
01:31:17.571 : en:20. Patricia And Rafael
01:34:28.195 : en:21. Bea And Rafael
01:37:35.382 : en:22. Round One
01:40:06.133 : en:23. Starting Over
01:41:56.610 : en:24. The Finalists
01:47:33.880 : en:25. Rumba
01:51:38.658 : en:26. The Results
01:53:19.158 : en:27. Job Offer
01:54:59.625 : en:28. Last Dance?
pb.wtf



Скачать Танцуй со мной через торрент https://i6.imageban.ru/out/2019/10/28/ccd92bce70cac79006cfdc83f657df4e.png Скачать фильм Танцуй со мной через торрент бесплантно в хорошем качестве Описание: В танцевальной студии, которая готовится к открытому чемпионату мира по бальным танцам в Лас-Вегасе, появляется молодой кубинец ... 10 10 1
Торрент: Зарегистрирован [2019-10-28 14:14] · скачан: 12 раз
Статус: √ проверено
Размер: 11.91 GB
Как cкачать? Как скачать Танцуй со мной через торрент | qTorrent

28-11-2019 20:33  

Отключить всю рекламу на сайте

    Дорогой пользователь! Огромная просьба, поблагодарите релизера, оцените раздачу и оставьте свои комментарий, если Вы скачали Танцуй со мной через торрент бесплатно! Внесите свою лепту в развитие PiratBit!
    Комментировать посты могут только пользователи прошедшие не сложную регистрацию
    Показать сообщения:    

    Танцуй со мной через торрент
    Скачать бесплатно Танцуй со мной
    Танцуй со мной скачать торрент
    Танцуй со мной смотреть онлайн
    Cкачать фильм Танцуй со мной бесплатно
    Танцуй со мной скачать торрент в хорошем качестве
    Танцуй со мной смотреть онлайн бесплатно в хорошем качестве


    Вы не можете начинать темы
    Вы не можете отвечать на сообщения
    Вы не можете редактировать свои сообщения
    Вы не можете удалять свои сообщения
    Вы не можете голосовать в опросах
    Вы не можете прикреплять файлы к сообщениям
    Вы можете скачивать файлы