новый адрес пиратбит piratbit
Мега распродажа FORZA HORIZON 4 ULTIMATE+ВСЕ DLC+ОНЛАЙН всего за 499р. 349 руб. (супер цена). Внимание количество ограничено!!!

iTunes

1+1

iTunes

мы

iTunes

1

iTunes

Чернобыль

iTunes

Ральф против интернета

Лицензия

ПШазам

Лицензия

Игра престолов

Лицензия

30
pack

ВАЖНО

!!Акция!!

Alien_RageХит недели

RePack

Resident Evil 21

ИГРА 18+

pack

RePack

Metro:Exodus

!!Акция!!

Alien_Rage

RePack

fifa19

RePack

Assassins Creed: Odyssey

RePack

NEED FOR SPEED™ PAYBACK

3 сезон

9 сезон

Бесстыжие 9 сезон

Все сериалы

все сериалы на PB.wtf

RePack

FAR CRY 5
Ребята, катастрофически не хватает 1900р. для оплаты серверов за Октябрь (всвязи с блокировками трафик упал в 3 раза), 1-2р., выручайте.
  

Скорая Помощь / Сезон: 2 / Серии: 1-20 из 20 (Богдан Дробязко) [2019, мелодрама, триллер, SATRip] pb.wtf

Скорая Помощь через торрент pb.wtf

Раздают: 3 [ 794 KB/s ] Качают: 2 [ 0 KB/s ]
Размер: 11.72 GB | Добавлен: 4 д. назад | Торрент скачан:18 раз
Скачать  

28-10-2019 16:09 Скорая Помощь Скачать торрент  

Скорая Помощь
Год выпуска: 2019
Страна: Россия
Жанр: мелодрама, триллер
Продолжительность: ~ 00:48:00 серия
Субтитры: отсутствуют

Режиссер: Богдан Дробязко



В ролях: Гоша Куценко, Марина Доможирова, Александр Тютин, Пётр Баранчеев, Олег Тактаров, Екатерина Волкова, Александра Мельник, Александр Сергеев (IV), Дмитрий Янышевский, Александр Никольский (II), Анастасия Моргун, Дмитрий Родонов, Дмитрий Калистратов, Наталья Фенкина, Елена Ковальчук, Алексей Смирнов (X), Александр Загоскин (II), Максим Деричев, Сергей Кириченко

Описание: В новых сериях Константин Кулыгин не теряет надежды когда-нибудь всё-таки сдать экзамен, который даст ему право на медицинскую деятельность. А пока возит на вызовы бригады врачей – и помогает им спасать человеческие жизни по мере сил. Косте предстоит ловить змей, спасти от самоубийства подростка и вытащить из подвала прячущуюся там девчонку, разоблачить девушку, которая ради квартиры пыталась отравить родителей. Помимо напряженной работы, каждому из героев предстоят испытания в личной жизни. Но, как и прежде, высокий профессионализм, душевная отзывчивость и крепкая дружба помогут нашим героям преодолеть все трудности.

Качество: SATRip
Формат: AVI

Видео: 720x400 (1.80:1), 25 fps, XviD build 73 ~1500 kbps avg, 0.21 bit/pixel
Аудио: 48 kHz, MPEG Layer 3, 2 ch, ~192.00 kbps avg
скриншот  скриншот  скриншот  скриншот  

Общее
Полное имя : D:\Skoraya.pomoshch.S02.XviD.SATRip.25Kuzmich\Skoraya.pomoshch.S02.E01.XviD.SATRip.25Kuzmich.avi
Формат : AVI
Формат/Информация : Audio Video Interleave
Размер файла : 600 Мбайт
Продолжительность : 50 м. 8 с.
Общий поток : 1673 Кбит/сек
Программа кодирования : VirtualDubMod 1.5.10.3 | www.virtualdub-fr.org || (build 2550/release)
Библиотека кодирования : VirtualDubMod build 2550/release

Видео
Идентификатор : 0
Формат : MPEG-4 Visual
Профиль формата : Advanced Simple@L5
Параметр BVOP формата : 1
Параметр QPel формата : Нет
Параметр GMC формата : Без точки перехода
Параметр матрицы формата : Default (MPEG)
Идентификатор кодека : XVID
Идентификатор кодека/Подсказка : XviD
Продолжительность : 50 м. 8 с.
Битрейт : 1506 Кбит/сек
Ширина : 720 пикселей
Высота : 400 пикселей
Соотношение сторон : 16:9
Частота кадров : 25,000 кадров/сек
Цветовое пространство : YUV
Субдискретизация насыщенности : 4:2:0
Битовая глубина : 8 бит
Тип развёртки : Прогрессивная
Метод сжатия : С потерями
Бит/(Пиксели*Кадры) : 0.195
Размер потока : 504 Мбайт (84%)
Библиотека кодирования : XviD 73

Аудио
Идентификатор : 1
Формат : MPEG Audio
Версия формата : Version 1
Профиль формата : Layer 3
Режим : Joint stereo
Идентификатор кодека : 55
Идентификатор кодека/Подсказка : MP3
Продолжительность : 50 м. 8 с.
Вид битрейта : Постоянный
Битрейт : 192 Кбит/сек
Каналы : 2 канала
Частота : 48,0 КГц
Метод сжатия : С потерями
Размер потока : 68,8 Мбайт (11%)
Выравнивание : Соединение по промежуткам
Библиотека кодирования : LAME3.99r
Настройки программы : -m j -V 4 -q 2 -lowpass 18.6 -b 192

Внимание! Раздача ведётся путём добавления новых серий; при каждом добавлении создаётся новый торрент.
Чтобы начать докачку новой серии, пользователям необходимо сделать следующее:
1. Остановить скачивание;
2. Удалить старый торрент у себя из клиента (старые серии удалять не надо);
3. Скачать новый торрент и запустить его у себя в клиенте вместо старого, при этом указать клиенту путь в старую папку куда и должно происходить скачивание новых серий. Ваш клиент при этом должен произвести хеширование (проверку) старой папки и будет докачивать только те серии, которых у вас ещё нет. Старые серии при этом не удаляются, а продолжают раздаваться! Eсли вы уже удалили старые серии, то предотвратить повторную закачку старых серий можно, отжав галочку в соответствующих местах при запуске нового торрента.
pb.wtf



Скачать Скорая Помощь через торрент https://i106.fastpic.ru/big/2019/1027/b8/ec486b65a37086014d580c9f56c046b8.jpg Скачать фильм Скорая Помощь через торрент бесплантно в хорошем качестве Описание: В новых сериях Константин Кулыгин не теряет надежды когда-нибудь всё-таки сдать экзамен, который даст ему право на медицинскую ... 10 10 6
Торрент: Зарегистрирован [2019-11-08 16:11] · скачан: 18 раз
Статус: √ проверено
Размер: 11.72 GB
Как cкачать? Как скачать Скорая Помощь через торрент | qTorrent

% Раздел Тема Автор DL S | L
Наши сериалы [ 15.33 GB ] Скорая Помощь / Сезон: 2 / Серии: 1-20 из 20 [2019 WEBRip-AVC] bober100 Скачать
5 | 1
Наши сериалы [ 12.6 GB ] Скорая Помощь / Сезон: 2 / Серии: 1-20 из 20 [2019 WEBRip] bober100 Скачать
3 | 2
Наши сериалы [ 43.13 GB ] Скорая Помощь / Сезон: 2 / Серии: 1-20 из 20 [2019 WEB-DL 1080p] bober100 Скачать
2 | 1
Наши сериалы [ 25.79 GB ] Скорая Помощь / Сезон: 2 / Серии: 1-20 из 20 [2019 WEB-DL 720p] bober100 Скачать
3 | 1
Наши сериалы [ 11.73 GB ] Скорая помощь / Сезон: 2 / Серии: 1-20 из 20 [2019 SATRip-AVC] aleksan55 Скачать
10 | 6
Наши сериалы [ 4.8 GB ] Скорая помощь / Сезон: 1 / Серии: [2018 HDTV 1080p] [Русский] R.G.Generalfilm White Smoke Скачать
1 | 2


>> Регистрируемся здесь <<






Отзывы и комментарии о схеме читаем и пишем здесь: ---> Отзывы и комментарии о схеме

Новые благодарочки в телеграм довольных пользователей:
скриншот   скриншот   скриншот   скриншот   скриншот
    Дорогой пользователь! Огромная просьба, поблагодарите релизера, оцените раздачу и оставьте свои комментарий, если Вы скачали Скорая Помощь через торрент бесплатно! Внесите свою лепту в развитие PiratBit!
    Комментировать посты могут только пользователи прошедшие не сложную регистрацию
    Показать сообщения:    

    Скорая Помощь через торрент
    Скачать бесплатно Скорая Помощь
    Скорая Помощь скачать торрент
    Скорая Помощь смотреть онлайн
    Cкачать фильм Скорая Помощь бесплатно
    Скорая Помощь скачать торрент в хорошем качестве
    Скорая Помощь смотреть онлайн бесплатно в хорошем качестве


    Вы не можете начинать темы
    Вы не можете отвечать на сообщения
    Вы не можете редактировать свои сообщения
    Вы не можете удалять свои сообщения
    Вы не можете голосовать в опросах
    Вы не можете прикреплять файлы к сообщениям
    Вы можете скачивать файлы