Anonymous, доброй ночи, присоединяйтесь к нам в Telegram!, здесь всегда актуальный адрес сайта, оперативная поддержка и многое другое!

>

5.5

iTunes

7.4

iTunes

7.9

iTunes

1

7.7

1 сезон

6.8

iTunes

7.3

1 сезон

13

6.7

1 сезон

8.3

RePack

30

ULTIMATE

pack

9.9

Лицензия

ВАЖНО

ИГРА 18+

pack

7.3

RePack

MK11

7.7

RePack

jed

7.8

RePack

fifa19

8.5

RePack

RDR2

RePack

NEED FOR SPEED™ PAYBACK

4 сезон

9 сезон

Бесстыжие 9 сезон

Все сериалы

все сериалы на PB.wtf

RePack

FAR CRY 5

Anonymous, доброй ночи, мы катастрофически не успеваем собрать деньги на оплату серверов, помогите нам пожалуйста 5,10,15р., для нас важна любая помощь . В качестве благодарности мы отключим Вам всю рекламу на сайте (укажите свой ник в строку Ваше имя)!

×
  
Magnet ссылка

Полярный / Сезон: 1 / Серии: 1-14 из 14 (Дмитрий Малина, Павел Кривец, Эльдар Джафаргулиев) [2019, комедия, WEB-DLRip] pb.wtf

Полярный через торрент pb.wtf

Размер: 4.36 GB | Добавлен: 1 год 11 мес. назад | Торрент скачан:170 раз
Смотреть онлайн Полярный | Скачать    Ребята, помогите собрать деньги на оплату серверов!!!

28-10-2019 17:46 Полярный Скачать торрент  

Полярный
Год выпуска: 2019
Страна: Россия
Жанр: комедия
Продолжительность: ~ 00:25:00 (Серия)
Перевод: Не требуется
Субтитры: отсутствуют

Режиссер: Дмитрий Малина, Павел Кривец, Эльдар Джафаргулиев



В ролях: Михаил Пореченков, Иван Охлобыстин, Владимир Епифанцев, Катерина Шпица, Игорь Жижикин, Ян Цапник, Филипп Дьячков (II), Светлана Листова, Карина Зверева, Виктор Бычков, Александр Баширов, Сергей Чирков, Вера Строкова, Игорь Филиппов, Юрий Тузов, Александр Потапов (III), Юрий Назаров, Антон Богданов, Сергей Черданцев, Александр Мосолов

Описание: Виктор Громов, некогда легенда криминальной Москвы по кличке Мясник, давно отошел от дел и коротает дни на загородной ферме. Но в один прекрасный день на ферме появляются его бывшие коллеги по опасному бизнесу и ставят перед фактом – Витя должен передержать на своем банковском счете воровской общак. Он вынужден согласиться. Но в тот самый день, когда Витя должен вернуть деньги, он получает удар по голове и начисто забывает пароль от банковского счета. Спасаясь бегством от бывших подельников, Витя оказывается за тысячи километров от Москвы. В маленьком северном городке под названием Полярный-17…

Качество: WEB-DLRip
Формат: AVI

Видео: 720x352 (2.05:1), 25 fps, XviD ~1600 kbps avg, 0.253 bit/pixel
Аудио: 48.0 kHz, AC3 Dolby Digital, 2/0 (L,R) ch, ~ 192 kbps
скриншот  скриншот  скриншот  скриншот  скриншот  

General
Complete name : D:\Полярный.2019. WEB-DLRip.. Files-x\01. Полярный.2019. WEB-DLRip.. Files-x.avi
Format : AVI
Format/Info : Audio Video Interleave
File size : 338 MiB
Duration : 26 min 11 s
Overall bit rate : 1 802 kb/s
Writing application : VirtualDubMod 1.5.10.3 | www.virtualdub-fr.org || (build 2550/release)
Writing library : VirtualDubMod build 2550/release

Video
ID : 0
Format : MPEG-4 Visual
Format profile : Advanced Simple@L5
Format settings : BVOP1 / Custom Matrix
Format settings, BVOP : 1
Format settings, QPel : No
Format settings, GMC : No warppoints
Format settings, Matrix : Custom
Codec ID : XVID
Codec ID/Hint : XviD
Duration : 26 min 11 s
Bit rate : 1 600 kb/s
Width : 720 pixels
Height : 352 pixels
Display aspect ratio : 2.045
Frame rate : 25.000 FPS
Color space : YUV
Chroma subsampling : 4:2:0
Bit depth : 8 bits
Scan type : Progressive
Compression mode : Lossy
Bits/(Pixel*Frame) : 0.253
Stream size : 300 MiB (89%)
Writing library : XviD 73

Audio
ID : 1
Format : AC-3
Format/Info : Audio Coding 3
Codec ID : 2000
Duration : 26 min 10 s
Bit rate mode : Constant
Bit rate : 192 kb/s
Channel(s) : 2 channels
Channel positions : Front: L R
Sampling rate : 48.0 kHz
Frame rate : 31.250 FPS (1536 SPF)
Bit depth : 16 bits
Compression mode : Lossy
Stream size : 35.9 MiB (11%)
Alignment : Split accross interleaves
Interleave, duration : 40 ms (1.00 video frame)
Interleave, preload duratio : 500 ms
Service kind : Complete Main

Внимание! Раздача ведётся путём добавления новых серий; при каждом добавлении создfётся новый торрент. Чтобы начать докачку новой серии, пользователям необходимо сделать следующее: (1) остановить скачивание, (2) удалить старый торрент у себя из клиента (старые серии удалять не надо), (3) скачать новый торрент и запустить его у себя в клиенте вместо старого, при этом указать клиенту путь в старую папку куда и должно происходить скачивание новых серий.

Ваш клиент при этом должен произвести хеширование (проверку) старой папки (если не производит сам - помогите ему сделать это), и будет докачивать только те серии которых у вас ещё нет. Старые серии при этом не удаляются, а продолжают раздаваться!

Eсли вы уже удалили старые серии, то предотвратить повторную закачку старых серий можно, отжав галочку в соответсвующих местах при запуске нового торрента.
pb.wtf



Скачать Полярный через торрент https://img15.lostpic.net/2019/10/28/e6d9f35b775364e6eca4e542b0ca81e7.jpg Скачать, смотреть онлайн Полярный бесплантно в хорошем качестве Описание: Виктор Громов, некогда легенда криминальной Москвы по кличке Мясник, давно отошел от дел и коротает дни на загородной ферме. Но в ... 9.3 10 12
Торрент: Зарегистрирован [2019-11-21 16:15] · скачан: 170 раз
Статус: √ проверено
Размер: 4.36 GB
Как cкачать? Как скачать Полярный через торрент | UTorrent

% Раздел Тема Автор DL S | L
Наши сериалы [ 4.27 GB ] Полярный / Сезон: 1 / Серии: 1-14 из 14 [2019 HDTVRip] bober100 Скачать
1 | 0
TNT serials [ 4.77 GB ] Полярный / Сезон: 1 / Серии: 1-14 из 14 [2019 HDTVRip-AVC] bober100 Скачать
1 | 0
TNT serials [ 5.17 GB ] Полярный / Сезон: 1 / Серии: 1-14 из 14 + фильм о сериале [2019 SATRip] bober100 Скачать
1 | 0
TNT serials [ 13.89 GB ] Полярный / Сезон: 1 / Серии: 1-14 из 14 [2019 HDTV 1080i] bober100 Скачать
2 | 0
TNT serials [ 11.63 GB ] Полярный / Сезон: 1 / Серии: 1-14 из 14 + фильм о сериале [2019 WEB-DL 1080p] bober100 Скачать
6 | 0
TNT serials [ 5.27 GB ] Полярный / Сезон: 1 / Серии: 1-14 из 14 [2019 WEB-DLRip-AVC] bober100 Скачать
2 | 0
TNT serials [ 7.61 GB ] Полярный / Сезон: 1 / Серии: 1-14 из 14 [2019 WEB-DL 720p] bober100 Скачать
1 | 0

28-11-2019 20:33  

Отключить всю рекламу на сайте

    Дорогой пользователь! Огромная просьба, поблагодарите релизера, оцените раздачу и оставьте свои комментарий, если Вы скачали Полярный через торрент бесплатно!
    Комментировать посты могут только пользователи прошедшие не сложную регистрацию
    Показать сообщения:    

    Полярный через торрент
    Скачать бесплатно Полярный
    Полярный скачать торрент
    Полярный смотреть онлайн
    Cкачать фильм Полярный бесплатно
    Полярный скачать торрент в хорошем качестве
    Полярный смотреть онлайн бесплатно в хорошем качестве


    Вы не можете начинать темы
    Вы не можете отвечать на сообщения
    Вы не можете редактировать свои сообщения
    Вы не можете удалять свои сообщения
    Вы не можете голосовать в опросах
    Вы не можете прикреплять файлы к сообщениям
    Вы можете скачивать файлы