Ссылка на приватное зеркало нашего сайта всего за 1$. Внимание количество ограничено!!!

2 сезон

iTunes

1 сезон

1

iTunes

iTunes

iTunes

1 сезон

RePack

30

ИГРА 18+

pack

ВАЖНО

!!Акция!!

Alien_RageХит недели

RePack

MK11
pack

Забери бонус

RePack

jed

!!Акция!!

Alien_Rage

RePack

fifa19

RePack

Assassins Creed: Odyssey

RePack

NEED FOR SPEED™ PAYBACK

4 сезон

9 сезон

Бесстыжие 9 сезон

Все сериалы

все сериалы на PB.wtf

RePack

FAR CRY 5
  

Братья по крови / Брати по крові / Сезон: 1-2 / Серии: 1-27 из 36 (Олег Масленников) [2019-2020, Детектив, криминал, WEBRip] pb.wtf

Братья по крови через торрент pb.wtf

Раздают: 1 [ 1 MB/s ]
Размер: 15.37 GB | Добавлен: 9 ч. назад | Торрент скачан:3 раза
Скачать  

28-10-2019 18:20 Братья по крови Скачать торрент  

Братья по крови / Брати по крові

Год выпуска: 2019-2020
Страна: Украина, 1+1 Продакшн" по заказу телеканала 2+2
Жанр: Детектив, криминал
Продолжительность: ~ 00:45:00
Перевод: Не требуется
Субтитры: Нет

Режиссёр: Олег Масленников

В ролях: Эрик Абрамович, Сергей Деревянко, Пётр Крылов (II), Зоряна Марченко, Виктор Сарайкин, Фёдор Гуринец, Наталия Бабенко, Дарья Соколюк, Олег Масленников, Вадим Павленко, Владимир Захарченко, Валерия Рева, Фатима Горбенко, Любовь Тищенко (II), Дарья Трегубова, Тарас Цимбалюк

Описание: Двум братьям, Максиму и Андрею Киреевым, приходится работать в одном отделе полиции, чтобы разобраться в запутанном деле загадочной смерти их общего отца. Андрей – сын Киреева от первого брака, надежный и опытный капитан полиции, который годами ненавидел отца за то, что тот бросил их с матерью. Максим – второй ребенок Киреева, инфантильный молодой парень, который устраивается в отдел брата, чтобы доказать свою непричастность к убийству отца и получить доступ к делу...

Реклама: Нет

https://www.sendspace.com/file/qc1t82

Качество: WEBRip
Формат: AVI
Видео кодек: XviD
Аудио кодек: AC3
Видео: 720x400 (1.80:1), 25 fps, XviD, ~1631 kbps avg, 0.226 bit/pixel (1 сезон)
Видео: 720x400 (1.80:1), 25 fps, XviD, ~1611 kbps avg, 0.224 bit/pixel (2 сезон)
Аудио: 48.0 kHz, AC3 Dolby Digital, 2/0 (L,R) ch, ~ 192 kbps
General
Complete name : C:01.Братья по крови.s01.E01.(2019).WEB-DLRip.by.Nicodem.Files-x.avi
Format : AVI
Format/Info : Audio Video Interleave
File size : 609 MiB
Duration : 46mn 28s
Overall bit rate : 1 832 Kbps
Writing application : VirtualDubMod 1.5.10.3 | www.virtualdub-fr.org || (build 2550/release)
Writing library : VirtualDubMod build 2550/release

Video
ID : 0
Format : MPEG-4 Visual
Format profile : Advanced Simple@L5
Format settings, BVOP : 1
Format settings, QPel : No
Format settings, GMC : No warppoints
Format settings, Matrix : Custom
Codec ID : XVID
Codec ID/Hint : XviD
Duration : 46mn 28s
Bit rate : 1 631 Kbps
Width : 720 pixels
Height : 400 pixels
Display aspect ratio : 16:9
Frame rate : 25.000 fps
Color space : YUV
Chroma subsampling : 4:2:0
Bit depth : 8 bits
Scan type : Progressive
Compression mode : Lossy
Bits/(Pixel*Frame) : 0.226
Stream size : 542 MiB (89%)
Writing library : XviD 73

Audio
ID : 1
Format : AC-3
Format/Info : Audio Coding 3
Mode extension : CM (complete main)
Codec ID : 2000
Duration : 46mn 28s
Bit rate mode : Constant
Bit rate : 192 Kbps
Channel(s) : 2 channels
Channel positions : Front: L R
Sampling rate : 48.0 KHz
Bit depth : 16 bits
Compression mode : Lossy
Stream size : 63.8 MiB (10%)
Alignment : Split accross interleaves
Interleave, duration : 40 ms (1.00 video frame)
Interleave, preload duration : 500 ms
General
Complete name : C:25.Братья по крови.s02.E01.(2020).WEB-DLRip.by.Nicodem.Files-x.avi
Format : AVI
Format/Info : Audio Video Interleave
File size : 570 MiB
Duration : 43mn 58s
Overall bit rate : 1 813 Kbps
Writing application : VirtualDubMod 1.5.10.3 | www.virtualdub-fr.org || (build 2550/release)
Writing library : VirtualDubMod build 2550/release

Video
ID : 0
Format : MPEG-4 Visual
Format profile : Advanced Simple@L5
Format settings, BVOP : 1
Format settings, QPel : No
Format settings, GMC : No warppoints
Format settings, Matrix : Custom
Codec ID : XVID
Codec ID/Hint : XviD
Duration : 43mn 58s
Bit rate : 1 611 Kbps
Width : 720 pixels
Height : 400 pixels
Display aspect ratio : 16:9
Frame rate : 25.000 fps
Color space : YUV
Chroma subsampling : 4:2:0
Bit depth : 8 bits
Scan type : Progressive
Compression mode : Lossy
Bits/(Pixel*Frame) : 0.224
Stream size : 507 MiB (89%)
Writing library : XviD 73

Audio
ID : 1
Format : AC-3
Format/Info : Audio Coding 3
Mode extension : CM (complete main)
Codec ID : 2000
Duration : 43mn 58s
Bit rate mode : Constant
Bit rate : 192 Kbps
Channel(s) : 2 channels
Channel positions : Front: L R
Sampling rate : 48.0 KHz
Bit depth : 16 bits
Compression mode : Lossy
Stream size : 60.4 MiB (11%)
Alignment : Split accross interleaves
Interleave, duration : 40 ms (1.00 video frame)
Interleave, preload duration : 500 ms
скриншот  скриншот  скриншот  
Внимание! Раздача ведётся путём добавления новых серий; при каждом добавлении создаётся новый торрент.
Чтобы начать докачку новой серии, пользователям необходимо сделать следующее:
1. Остановить скачивание.
2. Удалить старый торрент у себя из клиента (старые серии удалять не надо).
3. Скачать новый торрент и запустить его у себя в клиенте вместо старого, при этом указать клиенту путь в старую папку куда и должно происходить скачивание новых серий.
Ваш клиент при этом должен произвести хеширование (проверку) старой папки (если не производит сам - помогите ему сделать это), и будет докачивать только те серии которых у вас ещё нет. Старые серии при этом не удаляются, а продолжают раздаваться!
Eсли вы уже удалили старые серии, то предотвратить повторную закачку старых серий можно, отжав галочку в соответствующих местах при запуске нового торрента.
Релиз от: pb.wtf



Скачать Братья по крови через торрент https://i106.fastpic.ru/big/2019/1016/77/3fed0dd21b947428c72157a6bd364477.jpg Скачать фильм Братья по крови через торрент бесплантно в хорошем качестве Описание: Двум братьям, Максиму и Андрею Киреевым, приходится работать в одном отделе полиции, чтобы разобраться в запутанном деле ... 10 10 7
Торрент: Зарегистрирован [2020-10-22 14:32] · скачан: 3 раз
Статус: √ проверено
Размер: 15.37 GB
Как cкачать? Как скачать Братья по крови через торрент | qTorrent

28-11-2019 20:33  

Отключить всю рекламу на сайте

22-10-2020 14:33 Братья по крови Скачать торрент  

pb.wtf



    Дорогой пользователь! Огромная просьба, поблагодарите релизера, оцените раздачу и оставьте свои комментарий, если Вы скачали Братья по крови через торрент бесплатно! Внесите свою лепту в развитие PiratBit!
    Комментировать посты могут только пользователи прошедшие не сложную регистрацию
    Показать сообщения:    

    Братья по крови через торрент
    Скачать бесплатно Братья по крови
    Братья по крови скачать торрент
    Братья по крови смотреть онлайн
    Cкачать фильм Братья по крови бесплатно
    Братья по крови скачать торрент в хорошем качестве
    Братья по крови смотреть онлайн бесплатно в хорошем качестве


    Вы не можете начинать темы
    Вы не можете отвечать на сообщения
    Вы не можете редактировать свои сообщения
    Вы не можете удалять свои сообщения
    Вы не можете голосовать в опросах
    Вы не можете прикреплять файлы к сообщениям
    Вы можете скачивать файлы