Всегда рабочее зеркало без VPN и Proxy просто перед .vidak.icu напиши любое слово или цифру, Пример http://hlts.vidak.icu

MVO

2 сезон

1 сезон

1

1 сезон

iTunes

2 сезон

13

1 сезон

Deluxe

pack

Рекомендуем

Пиратка

30

ВАЖНО

RePack

MK11

RePack

jed

RePack

fifa19

RePack

RDR2

RePack

NEED FOR SPEED™ PAYBACK

Кинопоиск HD

6 сезон

 Острые козырьки 6 сезон

Все сериалы

все сериалы на PB.wtf

RePack

FAR CRY 5

Anonymous, нам критически не хватает 5601 руб. на оплату серверов и переферии за Апрель, помоги нам пожалуйста, вся надежда только на тебя. В благодарность мы отключим тебе всю рекламу на сайте!

×
  
Magnet ссылка

Терминатор: Да придёт спаситель / Terminator Salvation (МакДжи) [2009, Фантастика, боевик, триллер, драма, фантастика, приключения, UHD BDRemux 2160p] DUB [Лицензия] pb.wtf

Терминатор: Да придёт спаситель через торрент pb.wtf

Раздают: 1 [ 0 KB/s ]
Размер: 41.13 GB | Добавлен: 2 года 6 мес. назад | Торрент скачан:75 раз
Смотреть онлайн Терминатор: Да придёт спаситель | Скачать    Ребята, помогите собрать деньги на оплату серверов!!!

28-10-2019 18:31 Терминатор: Да придёт спаситель Скачать торрент  

Терминатор: Да придёт спаситель / Terminator Salvation
Год выпуска: 2009
Страна: США, Германия, Великобритания, Италия
Студия: Halcyon Company, The, IMF Internationale Medien und Film GmbH & Co. Produktions KG
Жанр: Фантастика, боевик, триллер, драма, научная фантастика, приключения
Продолжительность: 01:54:46
Перевод: Дублированный | Лицензия
Субтитры: Русские (Forced, full), английские

Режиссер: МакДжи

rating

В ролях:

Кристиан Бэйл (John Connor), Сэм Уортингтон (Marcus Wright), Антон Ельчин (Kyle Reese), Мун Бладгуд (Blair Williams), Брайс Даллас Ховард (Kate Connor), Коммон (Barnes), Джейн Александр (Virginia), Майкл Айронсайд (General Ashdown), Иван Г’Вера (General Losenko), Крис Браунинг (Morrison), Хелена Бонем Картер (Dr. Serena Kogan), Джадагрейс (Star)
Описание: 2018 год от рождества Христова. Джон Коннор — человек, чья судьба — возглавить Сопротивление электронному мозгу Скайнет и армии Терминаторов. Но в будущее, с верой в которое он возращен, вклинивается таинственный Маркус Райт: незнакомец, чьи последние воспоминания рисуют камеру смертников. Коннор должен понять, кто такой Маркус — посланник будущего или спасшийся из прошлого. И на фоне подготовки Скайнетом решающего удара, Коннор и Райт отправляются в путешествие, приводящее их в самую сердцевину взбунтовавшейся операционной системы, где открывается ужасная тайна, кроющаяся за потенциальным уничтожением человечества.

Качество: UHD BDRemux 2160p
Формат: MKV

Видео: 3840x2160 at 23.976 fps, MPEG-H HEVC HDR Video, 48200 kbps avg
Аудио#1: 48 kHz, AC3, 5.1, 640 Kbps | Лицензия | RUS |
Аудио#2: 48 kHz, DTS-HD MA, 5.1, 2424 Kbps | Оригинал | ENG |
скриншот  скриншот  скриншот  скриншот  скриншот  

General
Unique ID : 190095592445538268840455114853221113142 (0x8F031452296B0B9E2D1AE6BC27DF9D36)
Complete name : F:VideoTerminator.Salvation.2009.BDREMUX.2160p.HDR.seleZen.mkv
Format : Matroska
Format version : Version 4
File size : 41.1 GiB
Duration : 1 h 54 min
Overall bit rate mode : Variable
Overall bit rate : 51.3 Mb/s
Movie name : Terminator Salvation 2009 4K from селезень
Encoded date : UTC 2019-10-28 18:09:00
Writing application : mkvmerge v22.0.0 ('At The End Of The World') 64-bit
Writing library : libebml v1.3.5 + libmatroska v1.4.8

Video
ID : 1
Format : HEVC
Format/Info : High Efficiency Video Coding
Format profile : Main 10@L5.1@High
HDR format : SMPTE ST 2086, HDR10 compatible
Codec ID : V_MPEGH/ISO/HEVC
Duration : 1 h 54 min
Bit rate : 48.2 Mb/s
Width : 3 840 pixels
Height : 2 160 pixels
Display aspect ratio : 16:9
Frame rate mode : Constant
Frame rate : 23.976 (24000/1001) FPS
Color space : YUV
Chroma subsampling : 4:2:0 (Type 2)
Bit depth : 10 bits
Bits/(Pixel*Frame) : 0.243
Stream size : 38.7 GiB (94%)
Language : English
Default : Yes
Forced : No
Color range : Limited
Color primaries : BT.2020
Transfer characteristics : PQ
Matrix coefficients : BT.2020 non-constant
Mastering display color pri : Display P3
Mastering display luminance : min: 0.0001 cd/m2, max: 1000 cd/m2
Maximum Content Light Level : 992 cd/m2
Maximum Frame-Average Light : 523 cd/m2

Audio #1
ID : 2
Format : AC-3
Format/Info : Audio Coding 3
Commercial name : Dolby Digital
Codec ID : A_AC3
Duration : 1 h 54 min
Bit rate mode : Constant
Bit rate : 640 kb/s
Channel(s) : 6 channels
Channel layout : L R C LFE Ls Rs
Sampling rate : 48.0 kHz
Frame rate : 31.250 FPS (1536 SPF)
Bit depth : 16 bits
Compression mode : Lossy
Stream size : 525 MiB (1%)
Title : Dub [License]
Language : Russian
Service kind : Complete Main
Default : Yes
Forced : Yes

Audio #2
ID : 3
Format : DTS XLL
Format/Info : Digital Theater Systems
Commercial name : DTS-HD Master Audio
Codec ID : A_DTS
Duration : 1 h 54 min
Bit rate mode : Variable
Bit rate : 2 424 kb/s
Channel(s) : 6 channels
Channel layout : C L R Ls Rs LFE
Sampling rate : 48.0 kHz
Frame rate : 93.750 FPS (512 SPF)
Bit depth : 16 bits
Compression mode : Lossless
Stream size : 1.94 GiB (5%)
Title : Original
Language : English
Default : No
Forced : No

Text #1
ID : 4
Format : UTF-8
Codec ID : S_TEXT/UTF8
Codec ID/Info : UTF-8 Plain Text
Duration : 1 h 17 min
Bit rate : 2 b/s
Count of elements : 25
Stream size : 1.15 KiB (0%)
Title : Forced
Language : Russian
Default : Yes
Forced : Yes

Text #2
ID : 5
Format : UTF-8
Codec ID : S_TEXT/UTF8
Codec ID/Info : UTF-8 Plain Text
Duration : 1 h 45 min
Bit rate : 53 b/s
Count of elements : 833
Stream size : 41.7 KiB (0%)
Title : Full
Language : Russian
Default : No
Forced : No

Text #3
ID : 6
Format : UTF-8
Codec ID : S_TEXT/UTF8
Codec ID/Info : UTF-8 Plain Text
Duration : 1 h 44 min
Bit rate : 30 b/s
Count of elements : 709
Stream size : 23.5 KiB (0%)
Title : Full
Language : English
Default : No
Forced : No

Menu
00:00:00.000 : en:00:00:00.000
00:04:10.834 : en:00:04:10.834
00:14:30.620 : en:00:14:30.620
00:21:08.392 : en:00:21:08.392
00:29:11.500 : en:00:29:11.500
00:34:25.146 : en:00:34:25.146
00:41:06.839 : en:00:41:06.839
00:50:15.888 : en:00:50:15.888
00:56:20.210 : en:00:56:20.210
01:06:19.184 : en:01:06:19.184
01:15:24.854 : en:01:15:24.854
01:22:50.674 : en:01:22:50.674
01:30:35.513 : en:01:30:35.513
01:34:55.481 : en:01:34:55.481
01:38:54.178 : en:01:38:54.178
01:42:43.366 : en:01:42:43.366

pb.wtf



Скачать Терминатор: Да придёт спаситель через торрент https://img15.lostpic.net/2019/10/28/d1a87ae5a513cc0d12f2a2ee3c281722.jpg Скачать, смотреть онлайн Терминатор: Да придёт спаситель бесплантно в хорошем качестве Описание: 2018 год от рождества Христова. Джон Коннор — человек, чья судьба — возглавить Сопротивление электронному мозгу Скайнет и армии ... 9.5 10 6
Info! Золотая раздача, скачанное не засчитывается.
Торрент: Зарегистрирован [2019-10-28 18:31] · скачан: 75 раз
Статус: √ проверено
Размер: 41.13 GB
Как cкачать? Как скачать Терминатор: Да придёт спаситель через торрент | UTorrent

% Раздел Тема Автор DL S | L
Ultra HD (UHD: 2K, 4K, 8K) — видео сверхвысокой чёткости [ 27.89 GB ] Терминатор: Да придёт спаситель / Terminator Salvation [2009 UHD BDRip 2160p] [SDR] DUB [] bober100 Скачать
1 | 0
Ultra HD (UHD: 2K, 4K, 8K) — видео сверхвысокой чёткости [ 15.34 GB ] Терминатор: Да придёт спаситель / Terminator Salvation [2009 UHD BDRip 2160p] DUB [] bober100 Скачать
1 | 1
Фильмы без перевода [ 53.12 GB ] Терминатор: Да придёт спаситель / Terminator Salvation [2009 UHD Blu-ray EUR 2160p] RUS SUB sheker187 Скачать
1 | 0
Фильмы [HD 720p, 1080p] (Хороший звук DUB, MVO) [ 6.42 GB ] Терминатор: Да придёт спаситель / Terminator Salvation [2009 BDRip 1080p HEVC ()] [Director's Cut] Мичман37 Скачать
1 | 0
Фильмы 2009 [ 1.46 GB ] Терминатор: Да придёт спаситель / Terminator Salvation [2009 ... HDRip] Venxxx Скачать
1 | 0
Фильмы с авторской озвучкой [ 1.9 GB ] Терминатор: Да придёт спаситель / Terminator Salvation [2009 SATRip] [Театральная версия ] 4x[AVO] killermax2013 Скачать
1 | 0
Фильмы [HD 720p, 1080p] (Хороший звук DUB, MVO) [ 5.84 GB ] Терминатор: Да придёт спаситель / Terminator Salvation [2009 BDRip DUB ] VintMosina Скачать
1 | 0

28-11-2019 20:33  

Отключить всю рекламу на сайте

    Дорогой пользователь! Огромная просьба, поблагодарите релизера, оцените раздачу и оставьте свои комментарий, если Вы скачали Терминатор: Да придёт спаситель через торрент бесплатно!
    Комментировать посты могут только пользователи прошедшие не сложную регистрацию
    Показать сообщения:    

    Терминатор: Да придёт спаситель через торрент
    Скачать бесплатно Терминатор: Да придёт спаситель
    Терминатор: Да придёт спаситель скачать торрент
    Терминатор: Да придёт спаситель смотреть онлайн
    Cкачать фильм Терминатор: Да придёт спаситель бесплатно
    Терминатор: Да придёт спаситель скачать торрент в хорошем качестве
    Терминатор: Да придёт спаситель смотреть онлайн бесплатно в хорошем качестве


    Вы не можете начинать темы
    Вы не можете отвечать на сообщения
    Вы не можете редактировать свои сообщения
    Вы не можете удалять свои сообщения
    Вы не можете голосовать в опросах
    Вы не можете прикреплять файлы к сообщениям
    Вы можете скачивать файлы