Ссылка на приватное зеркало всего за 1$. Внимание количество ограничено!!!

iTunes

1+1

iTunes

мы

WEB-DL

1

iTunes

Чернобыль

iTunes

Ральф против интернета

Лицензия

ПШазам

Лицензия

Оно 2

Лицензия

30
pack

Вам бонус

ВАЖНО

!!Акция!!

Alien_RageХит недели

RePack

Resident Evil 21

ИГРА 18+

pack

RePack

jed

!!Акция!!

Alien_Rage

RePack

fifa19

RePack

Assassins Creed: Odyssey

RePack

NEED FOR SPEED™ PAYBACK

3 сезон

9 сезон

Бесстыжие 9 сезон

Все сериалы

все сериалы на PB.wtf

RePack

FAR CRY 5
Ребята, катастрофически не хватает 1900р. для оплаты серверов за Октябрь (всвязи с блокировками трафик упал в 3 раза), 1-2р., выручайте.
  

Страшные истории для рассказа в темноте / Scary Stories to Tell in the Dark (Андре Овредал) [2019, ужасы, триллер, HDRip, Дубляж "iTunes"] pb.wtf

Страшные истории для рассказа в темноте через торрент pb.wtf

Раздают: 4 [ 0 KB/s ]
Размер: 699 MB | Добавлен: 1 мес. 16 д. назад | Торрент скачан:103 раза
Скачать  

28-10-2019 18:40 Страшные истории для рассказа в темноте Скачать торрент  

Страшные истории для рассказа в темноте / Scary Stories to Tell in the Dark
Год выпуска: 2019
Страна: США, Канада, Китай /
Жанр: ужасы, триллер
Продолжительность: 01:47:57
Перевод: Дубляж (iTunes)

Режиссер: Андре Овредал

rating

В ролях: Зои Маргарет Коллетти, Майкл Гарза, Гэбриел Раш, Остин Абрамс, Дин Норрис, Джил Беллоуз, Лоррейн Туссен, Остин Зажур, Натали Гэнзхорн, Кэтлин Поллард

Описание: Хэллоуин 1968 года. Старшеклассница Стелла, большая любительница страшных историй, и двое её друзей наряжаются в нелепые костюмы и идут гулять. Так получается, что ребята выводят из себя школьного задиру и хулигана Томми и, спасаясь от него, знакомятся с неместным парнем Рамоном, а после отправляются в старинный заброшенный особняк. Дом принадлежал семье Бэллоуз, все члены которой загадочно исчезли почти 100 лет назад, а про дочь семейства Сару до сих пор ходят жуткие легенды — якобы она может убивать, рассказывая истории. Друзья находят потайную комнату, и Стелла забирает домой книгу, где Сара писала свои рассказы, и на страницах которой этим же вечером появится новый, а хулиган Томми исчезнет без следа.

Качество: HDRip
Формат: AVI
Видео кодек: DivX
Аудио кодек: MP3
Видео: 640x272 (2.35:1), 23.976 fps, DivX Codec 4.x ~767 kbps avg, 0.18 bit/pixel
Аудио: 48 kHz, MPEG Layer 3, 2 ch, ~128.00 kbps avg
скриншот   скриншот   скриншот   скриншот   скриншот   скриншот   скриншот   скриншот  

Общее
Полное имя : F:\ФИЛЬМЫ\Страшные истории для рассказа в темноте.2019.D.HDRip.avi
Формат : AVI
Формат/Информация : Audio Video Interleave
Размер файла : 699 Мбайт
Продолжительность : 1 ч. 47 м.
Общий поток : 905 Кбит/сек
Название фильма : Страшные истории для рассказа в темноте.2019.D.HDRip.avi
Программа кодирования : VirtualDubMod 1.5.10.3 | www.virtualdub-fr.org || (build 2550/release)

Видео
Идентификатор : 0
Формат : MPEG-4 Visual
Профиль формата : Advanced Simple@L5
Настройки формата : BVOP3 / GMC3 / QPel
Параметр BVOP формата : 3
Параметр QPel формата : Да
Параметр GMC формата : 3 точки перехода
Параметр матрицы формата : Default (MPEG)
Идентификатор кодека : DIVX
Идентификатор кодека/Информация : Project Mayo
Идентификатор кодека/Подсказка : DivX 4
Продолжительность : 1 ч. 47 м.
Битрейт : 768 Кбит/сек
Ширина : 640 пикселей
Высота : 272 пикселя
Соотношение сторон : 2,35:1
Частота кадров : 23,976 (24000/1001) кадра/сек
Цветовое пространство : YUV
Субдискретизация насыщенности : 4:2:0
Битовая глубина : 8 бит
Тип развёртки : Прогрессивная
Метод сжатия : С потерями
Бит/(Пиксели*Кадры) : 0.184
Размер потока : 593 Мбайт (85%)
Библиотека кодирования : XviD 1.2.1 (UTC 2008-12-04)

Аудио
Идентификатор : 1
Формат : MPEG Audio
Версия формата : Version 1
Профиль формата : Layer 3
Настройки формата : Joint stereo
Идентификатор кодека : 55
Идентификатор кодека/Подсказка : MP3
Продолжительность : 1 ч. 47 м.
Вид битрейта : Постоянный
Битрейт : 128 Кбит/сек
Каналы : 2 канала
Частота : 48,0 КГц
Частота кадров : 41,667 кадра/сек (1152 SPF)
Метод сжатия : С потерями
Размер потока : 98,8 Мбайт (14%)
Выравнивание : Соединение по промежуткам
Продолжительность промежутка : 42 мс. (1,00 видеокадр)
Время предзагрузки промежутка : 504 мс.
Библиотека кодирования : LAME3.99r
Настройки программы : -m j -V 4 -q 2 -lowpass 17 -b 128

pb.wtf



Скачать Страшные истории для рассказа в темноте через торрент http://pic1.kartinco.top/images/12/y3mve.jpg Скачать фильм Страшные истории для рассказа в темноте через торрент бесплантно в хорошем качестве Описание: Хэллоуин 1968 года. Старшеклассница Стелла, большая любительница страшных историй, и двое её друзей наряжаются в нелепые костюмы ... 10 10 3
Торрент: Зарегистрирован [2019-10-28 18:40] · скачан: 103 раз
Статус: √ проверено
Размер: 699 MB
Как cкачать? Как скачать Страшные истории для рассказа в темноте через торрент | qTorrent

% Раздел Тема Автор DL S | L
Ultra HD (UHD: 2K, 4K, 8K) — видео сверхвысокой чёткости [ 50.53 GB ] Страшные истории для рассказа в темноте / Scary Stories to Tell in the Dark [2019 UHD BDRemux 2160p] sheker187 Скачать
4 | 0
Фильмы 2019 [DVDrip, WEB-DLRip, HDrip] (DUB, MVO) [ 745 MB ] Страшные истории для рассказа в темноте / Scary Stories to Tell in the Dark [2019 WEB-DLRip-AVC] killermax2013 Скачать
5 | 0

28-11-2019 20:33  

Отключить всю рекламу на сайте

    Дорогой пользователь! Огромная просьба, поблагодарите релизера, оцените раздачу и оставьте свои комментарий, если Вы скачали Страшные истории для рассказа в темноте через торрент бесплатно! Внесите свою лепту в развитие PiratBit!
    Комментировать посты могут только пользователи прошедшие не сложную регистрацию
    Показать сообщения:    

    Страшные истории для рассказа в темноте через торрент
    Скачать бесплатно Страшные истории для рассказа в темноте
    Страшные истории для рассказа в темноте скачать торрент
    Страшные истории для рассказа в темноте смотреть онлайн
    Cкачать фильм Страшные истории для рассказа в темноте бесплатно
    Страшные истории для рассказа в темноте скачать торрент в хорошем качестве
    Страшные истории для рассказа в темноте смотреть онлайн бесплатно в хорошем качестве


    Вы не можете начинать темы
    Вы не можете отвечать на сообщения
    Вы не можете редактировать свои сообщения
    Вы не можете удалять свои сообщения
    Вы не можете голосовать в опросах
    Вы не можете прикреплять файлы к сообщениям
    Вы можете скачивать файлы