Ссылка на приватное зеркало нашего сайта всего за 1$. Внимание количество ограничено!!!

2 сезон

iTunes

1 сезон

1

iTunes

iTunes

iTunes

1 сезон

RePack

30

ИГРА 18+

pack

ВАЖНО

!!Акция!!

Alien_RageХит недели

RePack

MK11
pack

Забери бонус

RePack

jed

!!Акция!!

Alien_Rage

RePack

fifa19

RePack

Assassins Creed: Odyssey

RePack

NEED FOR SPEED™ PAYBACK

4 сезон

9 сезон

Бесстыжие 9 сезон

Все сериалы

все сериалы на PB.wtf

RePack

FAR CRY 5
  

Скорая Помощь / Сезон: 2 / Серии: 1-20 из 20 (Богдан Дробязко) [2019, мелодрама, триллер, WEB-DL 1080p] pb.wtf

Скорая Помощь через торрент pb.wtf

Размер: 43.13 GB | Добавлен: 11 мес. назад | Торрент скачан:15 раз
Скачать  

28-10-2019 19:06 Скорая Помощь Скачать торрент  

Скорая Помощь
Год выпуска: 2019
Страна: Россия
Жанр: мелодрама, триллер
Продолжительность: ~ 00:48:00 серия
Субтитры: отсутствуют

Режиссер: Богдан Дробязко



В ролях: Гоша Куценко, Марина Доможирова, Александр Тютин, Пётр Баранчеев, Олег Тактаров, Екатерина Волкова, Александра Мельник, Александр Сергеев (IV), Дмитрий Янышевский, Александр Никольский (II), Анастасия Моргун, Дмитрий Родонов, Дмитрий Калистратов, Наталья Фенкина, Елена Ковальчук, Алексей Смирнов (X), Александр Загоскин (II), Максим Деричев, Сергей Кириченко

Описание: В новых сериях Константин Кулыгин не теряет надежды когда-нибудь всё-таки сдать экзамен, который даст ему право на медицинскую деятельность. А пока возит на вызовы бригады врачей – и помогает им спасать человеческие жизни по мере сил. Косте предстоит ловить змей, спасти от самоубийства подростка и вытащить из подвала прячущуюся там девчонку, разоблачить девушку, которая ради квартиры пыталась отравить родителей. Помимо напряженной работы, каждому из героев предстоят испытания в личной жизни. Но, как и прежде, высокий профессионализм, душевная отзывчивость и крепкая дружба помогут нашим героям преодолеть все трудности.

Качество: WEB-DL 1080p
Формат: MKV

Видео: MPEG4 AVC Video, H264, 16:9, 1920x1080, 25 fps, ~6000 kbps, 0.116 bit/pixel
Аудио: AC3 Dolby Digital, 48.0 kHz, 2/0 (L,R) ch, 192 kbps
скриншот  скриншот  скриншот  скриншот  

General
Unique ID : 198361960937195366418748747203832862799 (0x953B1FC10FB102C3A5F2E5B1CC0E584F)
Complete name : J:\Skoraya.pomosch.S02.2019.WEB-DL.(1080p).ExKinoRay\Skoraya.pomosch.S02.E01.2019.WEB-DL.(1080p).ExKinoRay.mkv
Format : Matroska
Format version : Version 4 / Version 2
File size : 2.18 GiB
Duration : 50 min 37 s
Overall bit rate mode : Constant
Overall bit rate : 6 170 kb/s
Encoded date : UTC 2019-10-27 21:12:36
Writing application : mkvmerge v6.9.1 ('Blue Panther') 64bit built on Apr 18 2014 18:23:38
Writing library : libebml v1.3.0 + libmatroska v1.4.1

Video
ID : 1
Format : AVC
Format/Info : Advanced Video Codec
Format profile : High@L4.1
Format settings : 2 Ref Frames
Format settings, CABAC : No
Format settings, ReFrames : 2 frames
Codec ID : V_MPEG4/ISO/AVC
Duration : 50 min 38 s
Bit rate mode : Constant
Bit rate : 6 000 kb/s
Width : 1 920 pixels
Height : 1 080 pixels
Display aspect ratio : 16:9
Frame rate mode : Constant
Frame rate : 25.000 FPS
Standard : PAL
Color space : YUV
Chroma subsampling : 4:2:0
Bit depth : 8 bits
Scan type : Progressive
Bits/(Pixel*Frame) : 0.116
Stream size : 2.07 GiB (95%)
Default : Yes
Forced : No
Color range : Limited
Color primaries : BT.709
Transfer characteristics : BT.709
Matrix coefficients : BT.709

Audio
ID : 2
Format : AC-3
Format/Info : Audio Coding 3
Codec ID : A_AC3
Duration : 50 min 37 s
Bit rate mode : Constant
Bit rate : 192 kb/s
Channel(s) : 2 channels
Channel positions : Front: L R
Sampling rate : 48.0 kHz
Frame rate : 31.250 FPS (1536 SPF)
Bit depth : 16 bits
Compression mode : Lossy
Stream size : 69.5 MiB (3%)
Language : Russian
Service kind : Complete Main
Default : Yes
Forced : No

Внимание! Раздача ведётся путём добавления новых серий; при каждом добавлении создаётся новый торрент.
Чтобы начать докачку новой серии, пользователям необходимо сделать следующее:
1. Остановить скачивание;
2. Удалить старый торрент у себя из клиента (старые серии удалять не надо);
3. Скачать новый торрент и запустить его у себя в клиенте вместо старого, при этом указать клиенту путь в старую папку куда и должно происходить скачивание новых серий. Ваш клиент при этом должен произвести хеширование (проверку) старой папки и будет докачивать только те серии, которых у вас ещё нет. Старые серии при этом не удаляются, а продолжают раздаваться! Eсли вы уже удалили старые серии, то предотвратить повторную закачку старых серий можно, отжав галочку в соответствующих местах при запуске нового торрента.
pb.wtf



Скачать Скорая Помощь через торрент http://i106.fastpic.ru/big/2019/1027/b8/ec486b65a37086014d580c9f56c046b8.jpg Скачать фильм Скорая Помощь через торрент бесплантно в хорошем качестве Описание: В новых сериях Константин Кулыгин не теряет надежды когда-нибудь всё-таки сдать экзамен, который даст ему право на медицинскую ... 10 10 6
Торрент: Зарегистрирован [2019-11-09 05:25] · скачан: 15 раз
Статус: √ проверено
Размер: 43.13 GB
Как cкачать? Как скачать Скорая Помощь через торрент | qTorrent

% Раздел Тема Автор DL S | L
Наши сериалы [ 12.6 GB ] Скорая Помощь / Сезон: 2 / Серии: 1-20 из 20 [2019 WEBRip] bober100 Скачать
2 | 0
Наши сериалы [ 15.33 GB ] Скорая Помощь / Сезон: 2 / Серии: 1-20 из 20 [2019 WEBRip-AVC] bober100 Скачать
1 | 0
Наши сериалы [ 25.79 GB ] Скорая Помощь / Сезон: 2 / Серии: 1-20 из 20 [2019 WEB-DL 720p] bober100 Скачать
1 | 0
Наши сериалы [ 11.72 GB ] Скорая Помощь / Сезон: 2 / Серии: 1-20 из 20 [2019 SATRip] bober100 Скачать
1 | 0
Наши сериалы [ 11.73 GB ] Скорая помощь / Сезон: 2 / Серии: 1-20 из 20 [2019 SATRip-AVC] aleksan55 Скачать
1 | 0
Наши сериалы [ 4.8 GB ] Скорая помощь / Сезон: 1 / Серии: [2018 HDTV 1080p] [Русский] R.G.Generalfilm White Smoke Скачать
1 | 0


Последний раз редактировалось: bober100 (2019-11-09 05:25), всего редактировалось 3 раз(а)

28-11-2019 20:33  

Отключить всю рекламу на сайте

02-11-2019 09:36 Скорая Помощь Скачать торрент  

Как-то скучно качается, "подкиньте дровишек" пожалуйста... pb.wtf



    Дорогой пользователь! Огромная просьба, поблагодарите релизера, оцените раздачу и оставьте свои комментарий, если Вы скачали Скорая Помощь через торрент бесплатно! Внесите свою лепту в развитие PiratBit!
    Комментировать посты могут только пользователи прошедшие не сложную регистрацию
    Показать сообщения:    

    Скорая Помощь через торрент
    Скачать бесплатно Скорая Помощь
    Скорая Помощь скачать торрент
    Скорая Помощь смотреть онлайн
    Cкачать фильм Скорая Помощь бесплатно
    Скорая Помощь скачать торрент в хорошем качестве
    Скорая Помощь смотреть онлайн бесплатно в хорошем качестве


    Вы не можете начинать темы
    Вы не можете отвечать на сообщения
    Вы не можете редактировать свои сообщения
    Вы не можете удалять свои сообщения
    Вы не можете голосовать в опросах
    Вы не можете прикреплять файлы к сообщениям
    Вы можете скачивать файлы