Ссылка на приватное зеркало нашего сайта всего за 1$. Внимание количество ограничено!!!

2 сезон

iTunes

1 сезон

1

2 сезон

2 сезон

iTunes

1 сезон

RePack

30

Новинка

ВАЖНО

ИГРА 18+

pack

RePack

MK11
pack

Забери бонус

RePack

jed

!!Акция!!

Alien_Rage

RePack

fifa19

RePack

Assassins Creed: Odyssey

RePack

NEED FOR SPEED™ PAYBACK

4 сезон

9 сезон

Бесстыжие 9 сезон

Все сериалы

все сериалы на PB.wtf

RePack

FAR CRY 5
  

Герой (Карен Оганесян) [2019, Триллер, комедия, боевик, криминал, BDRip-AVC] [GER Transfer / Лицензия] pb.wtf

Герой через торрент pb.wtf

Размер: 2.18 GB | Добавлен: 9 мес. назад | Торрент скачан:131 раз
Скачать  

28-10-2019 21:22 Герой Скачать торрент  

Герой
Год выпуска: 2019
Страна: Россия
Жанр: Триллер, комедия, боевик, криминал
Продолжительность: 02:00:45
Перевод: Не требуется | Лицензия Blu-ray GER
Субтитры: Отсутствуют

Режиссер: Карен Оганесян

rating

В ролях: Александр Петров, Владимир Машков, Светлана Ходченкова, Ян Алабушев, Константин Лавроненко, Марина Петренко, Анастасия Тодореску, Тобиас Аспелин

Описание: 15 лет назад Андрей под руководством своего отца, полковника Родина, прошел обучение в секретной спецшколе, где из подростков готовили агентов Службы внешней разведки. Когда экспериментальный проект закрыли, Андрей «сжёг мосты», остался в Европе и старался не вспоминать о прошлом. Но однажды ему звонит отец, которого все считали погибшим. Тот сообщает, что на Андрея открыта охота, но кто решил его уничтожить — неизвестно. Спасаясь бегством, он находит Машу, с которой учился в спецшколе. Андрею предстоит пройти через любовь и предательство и узнать об истинных масштабах беспощадной шпионской игры, в которую он оказался втянут поневоле.

Качество: BDRip-AVC | GER Transfer
Формат: MKV

Видео: 1024x428 (2,40:1), 25 fps, MPEG-4 AVC ~ 2133 Кbps avg, 0.203 bit/pixel
Аудио: AC3, 48 kHz, 6 ch, ~448.00 kbps avg | русский | Blu-ray GER
скриншот  скриншот  скриншот  скриншот  скриншот  

Общее
Уникальный идентификатор : 239270965938540826190629278593183418925 (0xB401E96C88BCD229F2B86C3B5BEC8A2D)
Полное имя : GEROY.2019.BDRip.x264.mkv
Формат : Matroska
Версия формата : Version 4
Размер файла : 2,18 Гбайт
Продолжительность : 2 ч. 0 м.
Общий поток : 2582 Кбит/сек
Название фильма : Герой (2019)
Дата кодирования : UTC 2020-02-27 05:45:34
Программа кодирования : mkvmerge v41.0.0 ('Smarra') 64-bit
Библиотека кодирования : libebml v1.3.9 + libmatroska v1.5.2
Обложка : Yes
Attachments : cover.jpg

Видео
Идентификатор : 1
Формат : AVC
Формат/Информация : Advanced Video Codec
Профиль формата : High@L4.1
Настройки формата : CABAC / 10 Ref Frames
Параметр CABAC формата : Да
Параметр RefFrames формата : 10 кадров
Идентификатор кодека : V_MPEG4/ISO/AVC
Продолжительность : 2 ч. 0 м.
Битрейт : 2133 Кбит/сек
Ширина : 1024 пикселя
Высота : 428 пикселей
Соотношение сторон : 2,40:1
Режим частоты кадров : Постоянный
Частота кадров : 23,976 (24000/1001) кадра/сек
Цветовое пространство : YUV
Субдискретизация насыщенности : 4:2:0
Битовая глубина : 8 бит
Тип развёртки : Прогрессивная
Бит/(Пиксели*Кадры) : 0.203
Размер потока : 1,80 Гбайт (83%)
Заголовок : #stillet
Библиотека кодирования : x264 core 152 r2851bm ba24899
Настройки программы : cabac=1 / ref=10 / deblock=1:-3:-3 / analyse=0x3:0x113 / me=umh / subme=11 / psy=1 / psy_rd=1.00:0.15 / mixed_ref=1 / me_range=32 / chroma_me=1 / trellis=2 / 8x8dct=1 / cqm=0 / deadzone=21,11 / fast_pskip=0 / chroma_qp_offset=-3 / threads=8 / lookahead_threads=3 / sliced_threads=0 / nr=0 / decimate=0 / interlaced=0 / bluray_compat=0 / constrained_intra=0 / bframes=12 / b_pyramid=2 / b_adapt=2 / b_bias=0 / direct=3 / weightb=1 / open_gop=0 / weightp=2 / keyint=240 / keyint_min=23 / scenecut=40 / intra_refresh=0 / rc=2pass / mbtree=0 / bitrate=2133 / ratetol=1.0 / qcomp=0.60 / qpmin=0 / qpmax=69 / qpstep=4 / cplxblur=20.0 / qblur=0.5 / ip_ratio=1.40 / pb_ratio=1.30 / aq=1:1.00
Язык : German
Default : Да
Forced : Нет

Аудио
Идентификатор : 2
Формат : AC-3
Формат/Информация : Audio Coding 3
Коммерческое название : Dolby Digital
Идентификатор кодека : A_AC3
Продолжительность : 2 ч. 0 м.
Вид битрейта : Постоянный
Битрейт : 448 Кбит/сек
Каналы : 6 каналов
ChannelLayout : L R C LFE Ls Rs
Частота : 48,0 КГц
Частота кадров : 31,250 кадров/сек (1536 SPF)
Метод сжатия : С потерями
Размер потока : 387 Мбайт (17%)
Заголовок : Blu-ray GER
Язык : Russian
Default : Да
Forced : Да

Меню
00:00:00.000 : en:Глава 1
00:08:07.120 : en:Глава 2
00:16:04.799 : en:Глава 3
00:23:50.719 : en:Глава 4
00:31:17.319 : en:Глава 5
00:38:27.799 : en:Глава 6
00:46:04.679 : en:Глава 7
00:54:12.238 : en:Глава 8
01:01:21.437 : en:Глава 9
01:09:38.196 : en:Глава 10
01:17:53.196 : en:Глава 11
01:24:54.756 : en:Глава 12
01:32:16.356 : en:Глава 13
01:39:37.435 : en:Глава 14
01:46:51.674 : en:Глава 15
pb.wtf



Скачать Герой через торрент https://i111.fastpic.ru/big/2020/0227/ca/5c56e9ea81607fb9fca9a2bc65c051ca.jpg Скачать фильм Герой через торрент бесплантно в хорошем качестве Описание: 15 лет назад Андрей под руководством своего отца, полковника Родина, прошел обучение в секретной спецшколе, где из подростков ... 7.9 10 23
Торрент: Зарегистрирован [2020-02-27 06:16] · скачан: 131 раз
Статус: √ проверено
Размер: 2.18 GB
Как cкачать? Как скачать Герой через торрент | qTorrent

% Раздел Тема Автор DL S | L
T Релизы по Парсеру [Игры, Сериалы и Фильмы и другое...] [ 876 MB ] Последний герой. Актёры против экстрасенсов. Финал [25.05.2019 реалити-шоу IPTVRip] killermax2013 Скачать
1 | 0
T Релизы по Парсеру [Игры, Сериалы и Фильмы и другое...] [ 16.69 GB ] Последний герой. Актёры против экстрасенсов / Сезон: 7 / Серии: 1-12 из 14 [2019 реалити-шоу WEB-DL 720p] killermax2013 Скачать
1 | 0
T Релизы по Парсеру [Игры, Сериалы и Фильмы и другое...] [ 1.26 GB ] Последний герой. Актёры против экстрасенсов 10-ая серия [04.05.2019 реалити-шоу WEB-DL 720p] killermax2013 Скачать
1 | 0
T Релизы по Парсеру [Игры, Сериалы и Фильмы и другое...] [ 47.46 GB ] Последний герой: Актёры против экстрасенсов / Сезон: 7 / Серии: 1-10 из 14 [2019 реалити-шоу HDTV 1080p] [ТВ-3] killermax2013 Скачать
1 | 0
Релизы по Парсеру [Игры, Сериалы и Фильмы и другое...] [ 769 MB ] Последний герой. Актёры против экстрасенсов 6 выпуск [06.04.2019 реалити-шоу IPTVRip] killermax2013 Скачать
1 | 0
T Фильмы (мультфильмы) cо спонсором показа (Новинки AVI/MKV) [ 1.37 GB ] Макс 2: Герой Белого Дома / Max 2: White House Hero [2017 HDRip] MVO [Официальный звук] bober100 Скачать
1 | 0
T Релизы по Парсеру [Игры, Сериалы и Фильмы и другое...] [ 4.31 GB ] Макс 2: Герой Белого Дома / Max 2: White House Hero [2017 BDRip ] Яйцеслав Скачать
1 | 0


Последний раз редактировалось: bober100 (2020-02-27 06:16), всего редактировалось 2 раз(а)

28-11-2019 20:33  

Отключить всю рекламу на сайте

29-10-2019 20:25 Герой Скачать торрент  

Говнофильмpb.wtf



30-10-2019 15:36 Герой Скачать торрент  

Как уже з@еб@л уже этот петров, сук, затычка в каждой дырке.
За труды спасибо, качать не буду.pb.wtf



31-10-2019 13:25 Герой Скачать торрент  

Ничего не понятно, но очень интересно!
Вот чем берёт Голливуд, так это тем, что сюжет всегда интуитивно понятен. Но для нашего кинематографа это слишком просто! Пуля вошла в голову, а вышла из лесу!
Вот конкретно в данном фильме приходится вдумчиво улавливать множество изгибов сюжетной линии, чтобы появился малейший интерес к дальнейшему просмотру.
Есть и забавные моменты. Например когда убийцы летали на фонтанах, вспомнил индийское кино. Тоже хочу так полетать... в Крыму тоже. pb.wtf



    Дорогой пользователь! Огромная просьба, поблагодарите релизера, оцените раздачу и оставьте свои комментарий, если Вы скачали Герой через торрент бесплатно! Внесите свою лепту в развитие PiratBit!
    Комментировать посты могут только пользователи прошедшие не сложную регистрацию
    Показать сообщения:    

    Герой через торрент
    Скачать бесплатно Герой
    Герой скачать торрент
    Герой смотреть онлайн
    Cкачать фильм Герой бесплатно
    Герой скачать торрент в хорошем качестве
    Герой смотреть онлайн бесплатно в хорошем качестве


    Вы не можете начинать темы
    Вы не можете отвечать на сообщения
    Вы не можете редактировать свои сообщения
    Вы не можете удалять свои сообщения
    Вы не можете голосовать в опросах
    Вы не можете прикреплять файлы к сообщениям
    Вы можете скачивать файлы