новый адрес
Мега распродажа FORZA HORIZON 4 ULTIMATE+ВСЕ DLC+ОНЛАЙН всего за 499р. 349 руб. (супер цена). Внимание количество ограничено!!!

iTunes

1+1

iTunes

мы

iTunes

1

iTunes

Чернобыль

iTunes

Ральф против интернета

Лицензия

ПШазам

Лицензия

Оно 2

Лицензия

30
pack

ВАЖНО

!!Акция!!

Alien_RageХит недели

RePack

Resident Evil 21

ИГРА 18+

pack

RePack

jed

!!Акция!!

Alien_Rage

RePack

fifa19

RePack

Assassins Creed: Odyssey

RePack

NEED FOR SPEED™ PAYBACK

3 сезон

9 сезон

Бесстыжие 9 сезон

Все сериалы

все сериалы на PB.wtf

RePack

FAR CRY 5
Ребята, катастрофически не хватает 1900р. для оплаты серверов за Октябрь (всвязи с блокировками трафик упал в 3 раза), 1-2р., выручайте.
  

Герой (Карен Оганесян) [2019, Триллер, комедия, боевик, криминал, WEB-DLRip-AVC] [iTunes] - ExKinoRay pb.wtf

Герой через торрент pb.wtf

Раздают: 46 [ 8 KB/s ]
Размер: 1.45 GB | Добавлен: 23 д. назад | Торрент скачан:660 раз
Скачать  

29-10-2019 01:15 Герой Скачать торрент  

Название: Герой
Год выхода: 2019
Жанр: Триллер, комедия, боевик, криминал
Режиссер: Карен Оганесян
В ролях: Александр Петров, Владимир Машков, Светлана Ходченкова, Ян Алабушев, Константин Лавроненко, Марина Петренко, Анастасия Тодореску, Тобиас Аспелин

Описание: 15 лет назад Андрей под руководством своего отца, полковника Родина, прошел обучение в секретной спецшколе, где из подростков готовили агентов Службы внешней разведки. Когда экспериментальный проект закрыли, Андрей «сжёг мосты», остался в Европе и старался не вспоминать о прошлом. Но однажды ему звонит отец, которого все считали погибшим. Тот сообщает, что на Андрея открыта охота, но кто решил его уничтожить — неизвестно. Спасаясь бегством, он находит Машу, с которой учился в спецшколе. Андрею предстоит пройти через любовь и предательство и узнать об истинных масштабах беспощадной шпионской игры, в которую он оказался втянут поневоле.

rating

Страна: Россия
Студия: Телеканал «РОССИЯ 1», Карго Фильм
Продолжительность: 01:55:42
Перевод: Не требуется
Субтитры: Русские на иностранную речь

Формат: MKV
Качество: WEB-DLRip-AVC
Видео: MPEG-4 AVC, 720x302 (2.40:1), 25.000 fps, 1408 Kbps, 0.259 bit/pixel
Аудио : 48 kHz, AC3, 5.1, 384 Kbps | iTunes | RUS |
General
Unique ID : 219243834758602153185066589524579389557 (0xA4F0D39F3A8F4F3B8FACA35DED351075)
Complete name : F:\Geroy.2019.WEB-DL.AVC.ExKinoRay.mkv
Format : Matroska
Format version : Version 2
File size : 1.45 GiB
Duration : 1 h 55 min
Overall bit rate : 1 792 kb/s
Movie name : Герой (2019) from ExKinoRay
Encoded date : UTC 2019-10-29 00:33:51
Writing application : mkvmerge v5.6.0 ('Kenya Kane') built on May 27 2012 16:44:04
Writing library : libebml v1.2.3 + libmatroska v1.3.0

Video
ID : 1
Format : AVC
Format/Info : Advanced Video Codec
Format profile : High@L4.1
Format settings, CABAC : Yes
Format settings, ReFrames : 11 frames
Codec ID : V_MPEG4/ISO/AVC
Duration : 1 h 55 min
Bit rate : 1 408 kb/s
Width : 720 pixels
Height : 302 pixels
Display aspect ratio : 2.40:1
Frame rate mode : Constant
Frame rate : 25.000 FPS
Color space : YUV
Chroma subsampling : 4:2:0
Bit depth : 8 bits
Scan type : Progressive
Bits/(Pixel*Frame) : 0.259
Stream size : 1.11 GiB (77%)
Title : Enigma
Writing library : x264 core 152 r2851 ba24899
Encoding settings : cabac=1 / ref=11 / deblock=1:-2:-2 / analyse=0x3:0x113 / me=umh / subme=10 / psy=1 / psy_rd=1.00:0.05 / mixed_ref=1 / me_range=32 / chroma_me=1 / trellis=2 / 8x8dct=1 / cqm=0 / deadzone=21,11 / fast_pskip=0 / chroma_qp_offset=-3 / threads=9 / lookahead_threads=1 / sliced_threads=0 / nr=0 / decimate=0 / interlaced=0 / bluray_compat=0 / constrained_intra=0 / bframes=9 / b_pyramid=2 / b_adapt=2 / b_bias=0 / direct=3 / weightb=1 / open_gop=0 / weightp=2 / keyint=240 / keyint_min=24 / scenecut=40 / intra_refresh=0 / rc=2pass / mbtree=0 / bitrate=1408 / ratetol=1.0 / qcomp=0.60 / qpmin=0 / qpmax=51 / qpstep=4 / cplxblur=20.0 / qblur=0.5 / ip_ratio=1.40 / pb_ratio=1.30 / aq=1:1.00
Default : Yes
Forced : No
Color range : Limited
Color primaries : BT.709
Transfer characteristics : BT.709
Matrix coefficients : BT.709

Audio
ID : 2
Format : AC-3
Format/Info : Audio Coding 3
Mode extension : CM (complete main)
Format settings, Endianness : Big
Codec ID : A_AC3
Duration : 1 h 55 min
Bit rate mode : Constant
Bit rate : 384 kb/s
Channel(s) : 6 channels
Channel positions : Front: L C R, Side: L R, LFE
Sampling rate : 48.0 kHz
Frame rate : 31.250 FPS (1536 spf)
Compression mode : Lossy
Stream size : 318 MiB (21%)
Title : iTunes
Language : Russian
Default : Yes
Forced : No

Menu
00:00:00.000 : en:Глава 1
00:08:07.120 : en:Глава 2
00:16:04.799 : en:Глава 3
00:23:50.719 : en:Глава 4
00:31:17.319 : en:Глава 5
00:38:27.799 : en:Глава 6
00:46:04.679 : en:Глава 7
00:54:12.238 : en:Глава 8
01:01:21.437 : en:Глава 9
01:09:38.196 : en:Глава 10
01:17:53.196 : en:Глава 11
01:24:54.756 : en:Глава 12
01:32:16.356 : en:Глава 13
01:39:37.435 : en:Глава 14
01:46:51.674 : en:Глава 15


Релиз от:

Автор релиза: pb.wtf



Скачать Герой через торрент https://i87.fastpic.ru/big/2019/1028/c5/557bd152c5bdefef50d4f5c3aef03bc5.jpg Скачать фильм Герой через торрент бесплантно в хорошем качестве Описание: 15 лет назад Андрей под руководством своего отца, полковника Родина, прошел обучение в секретной спецшколе, где из подростков ... 9.6 10 27
Info! Золотая раздача, скачанное не засчитывается.
Торрент: Зарегистрирован [2019-10-29 01:15] · скачан: 660 раз
Статус: √ проверено
Размер: 1.45 GB
Как cкачать? Как скачать Герой через торрент | qTorrent

% Раздел Тема Автор DL S | L
Наши фильмы (HD, WEB-DL 720p, 1080p) [ 4.81 GB ] Герой [2016 военный BDRip 1080p] [] - ExKinoRay Enigma2010 Скачать
1 | 0
Иностранные мультфильмы [ 1.71 GB ] СПАРК. Герой Вселенной / Spark: A Space Tail [2016 мультфильм BDRip-AVC ] - ExKinoRay Enigma2010 Скачать
4 | 0


>> Регистрируемся здесь <<






Отзывы и комментарии о схеме читаем и пишем здесь: ---> Отзывы и комментарии о схеме

Новые благодарочки в телеграм довольных пользователей:
скриншот   скриншот   скриншот   скриншот   скриншот

29-10-2019 16:03 Герой Скачать торрент  

Как уже достал этот дондон (Александр Петров).pb.wtf



30-10-2019 11:48 Герой Скачать торрент  

это точно...))))) ему бы в полицейском с рублевки до конца своих дней сниматься..., там ему самое и место...)))))) на дух не переношу этого карлика... да и фильм реальное г...., один Машков его спасает...)))))pb.wtf



31-10-2019 16:19 Герой Скачать торрент  

эх сашка сашка еще и ходченкову подтянули,блевань да и только pb.wtf



31-10-2019 16:45 Герой Скачать торрент  

Очередная дичь? pb.wtf



08-11-2019 20:27 Герой Скачать торрент  

так себе фильм, от этого "полицейского с рублёвки" уже блевать охотаpb.wtf



    Дорогой пользователь! Огромная просьба, поблагодарите релизера, оцените раздачу и оставьте свои комментарий, если Вы скачали Герой через торрент бесплатно! Внесите свою лепту в развитие PiratBit!
    Комментировать посты могут только пользователи прошедшие не сложную регистрацию
    Показать сообщения:    

    Герой через торрент
    Скачать бесплатно Герой
    Герой скачать торрент
    Герой смотреть онлайн
    Cкачать фильм Герой бесплатно
    Герой скачать торрент в хорошем качестве
    Герой смотреть онлайн бесплатно в хорошем качестве


    Вы не можете начинать темы
    Вы не можете отвечать на сообщения
    Вы не можете редактировать свои сообщения
    Вы не можете удалять свои сообщения
    Вы не можете голосовать в опросах
    Вы не можете прикреплять файлы к сообщениям
    Вы можете скачивать файлы