новый адрес
Ссылка на приватное зеркало всего за 1$. Внимание количество ограничено!!!

iTunes

1+1

iTunes

мы

iTunes

1

iTunes

Чернобыль

iTunes

Ральф против интернета

Лицензия

ПШазам

Лицензия

Оно 2

Лицензия

30
pack

Вам бонус

ВАЖНО

!!Акция!!

Alien_RageХит недели

RePack

Resident Evil 21

ИГРА 18+

pack

RePack

jed

!!Акция!!

Alien_Rage

RePack

fifa19

RePack

Assassins Creed: Odyssey

RePack

NEED FOR SPEED™ PAYBACK

3 сезон

9 сезон

Бесстыжие 9 сезон

Все сериалы

все сериалы на PB.wtf

RePack

FAR CRY 5
Ребята, катастрофически не хватает 1900р. для оплаты серверов за Октябрь (всвязи с блокировками трафик упал в 3 раза), 1-2р., выручайте.
  

Герой (Карен Оганесян) [2019, Триллер, комедия, боевик, криминал, WEB-DLRip-AVC] [iTunes] - OlLanDGroup pb.wtf

Герой через торрент pb.wtf

Раздают: 12 [ 88 KB/s ]
Размер: 745 MB | Добавлен: 24 д. назад | Торрент скачан:213 раз
Скачать  

29-10-2019 16:04 Герой Скачать торрент  

Герой Год выпуска: 2019
Страна: Россия
Жанр: Триллер, комедия, боевик, криминал
Продолжительность: 01:55:42
Перевод: Не требуется | iTunes
Субтитры: Русские [на иностранную речь]

Режиссер: Карен Оганесян


rating

В ролях: Александр Петров, Владимир Машков, Светлана Ходченкова, Ян Алабушев, Константин Лавроненко, Марина Петренко, Анастасия Тодореску, Тобиас Аспелин

Описание: 15 лет назад Андрей под руководством своего отца, полковника Родина, прошел обучение в секретной спецшколе, где из подростков готовили агентов Службы внешней разведки. Когда экспериментальный проект закрыли, Андрей «сжёг мосты», остался в Европе и старался не вспоминать о прошлом. Но однажды ему звонит отец, которого все считали погибшим. Тот сообщает, что на Андрея открыта охота, но кто решил его уничтожить — неизвестно. Спасаясь бегством, он находит Машу, с которой учился в спецшколе. Андрею предстоит пройти через любовь и предательство и узнать об истинных масштабах беспощадной шпионской игры, в которую он оказался втянут поневоле.

Качество: WEB-DLRip-AVC
Формат: MKV

Видео: 720x302 (2.40:1), 25 fps, x264 ~836 kbps avg, 0.154 bit/pixel
Аудио: 48 kHz, HE-AAC, 2 ch, ~64 kbps avg | RUS | iTunes
General
Unique ID : 29138682061850568568450145653343904013 (0x15EBE7F1BB6D79062CEF107DE79FE10D)
Complete name : D:\OlLanDGroup\iTunes\GEROY.2019.WEB-DLRip(AVC).745Mb.OlLanDGroup.mkv
Format : Matroska
Format version : Version 4
File size : 745 MiB
Duration : 1 h 55 min
Overall bit rate : 900 kb/s
Movie name : GEROY.2019.WEB-DLRip(AVC).745Mb.OlLanDGroup#Skandar#.
Encoded date : UTC 2019-10-29 15:32:44
Writing application : mkvmerge v31.0.0 ('Dolores In A Shoestand') 64-bit
Writing library : libebml v1.3.6 + libmatroska v1.4.9
Cover : Yes
Attachments : cover.jpg

Video
ID : 1
Format : AVC
Format/Info : Advanced Video Codec
Format profile : High@L4.1
Format settings : CABAC / 10 Ref Frames
Format settings, CABAC : Yes
Format settings, ReFrames : 10 frames
Codec ID : V_MPEG4/ISO/AVC
Duration : 1 h 55 min
Bit rate : 836 kb/s
Width : 720 pixels
Height : 302 pixels
Display aspect ratio : 2.40:1
Frame rate mode : Constant
Frame rate : 25.000 FPS
Color space : YUV
Chroma subsampling : 4:2:0
Bit depth : 8 bits
Scan type : Progressive
Bits/(Pixel*Frame) : 0.154
Stream size : 691 MiB (93%)
Title : GEROY.2019.WEB-DLRip(AVC).745Mb.OlLanDGroup#Skandar#.
Writing library : x264 core 146 r2538 121396c
Encoding settings : cabac=1 / ref=10 / deblock=1:-3:-3 / analyse=0x3:0x133 / me=umh / subme=11 / psy=1 / psy_rd=0.97:0.05 / mixed_ref=1 / me_range=48 / chroma_me=1 / trellis=2 / 8x8dct=1 / cqm=0 / deadzone=21,11 / fast_pskip=0 / chroma_qp_offset=-3 / threads=6 / lookahead_threads=1 / sliced_threads=0 / nr=0 / decimate=0 / interlaced=0 / bluray_compat=0 / constrained_intra=0 / bframes=11 / b_pyramid=2 / b_adapt=2 / b_bias=0 / direct=3 / weightb=1 / open_gop=0 / weightp=2 / keyint=240 / keyint_min=24 / scenecut=40 / intra_refresh=0 / rc_lookahead=40 / rc=2pass / mbtree=0 / bitrate=836 / ratetol=1.0 / qcomp=0.60 / qpmin=0 / qpmax=69 / qpstep=4 / cplxblur=20.0 / qblur=0.5 / vbv_maxrate=50000 / vbv_bufsize=62500 / nal_hrd=none / filler=0 / ip_ratio=1.40 / pb_ratio=1.30 / aq=1:1.00
Language : Russian
Default : Yes
Forced : No

Audio
ID : 2
Format : AAC LC SBR
Format/Info : Advanced Audio Codec Low Complexity with Spectral Band Replication
Commercial name : HE-AAC
Format settings : Explicit
Codec ID : A_AAC-2
Duration : 1 h 55 min
Bit rate : 64.0 kb/s
Channel(s) : 2 channels
Channel layout : L R
Sampling rate : 48.0 kHz
Frame rate : 23.438 FPS (2048 SPF)
Compression mode : Lossy
Delay relative to video : 31 ms
Stream size : 53.0 MiB (7%)
Title : iTunes
Language : Russian
Default : Yes
Forced : No

Menu
00:00:00.000 : en:Глава 1
00:08:07.120 : en:Глава 2
00:16:04.799 : en:Глава 3
00:23:50.719 : en:Глава 4
00:31:17.319 : en:Глава 5
00:38:27.799 : en:Глава 6
00:46:04.679 : en:Глава 7
00:54:12.238 : en:Глава 8
01:01:21.437 : en:Глава 9
01:09:38.196 : en:Глава 10
01:17:53.196 : en:Глава 11
01:24:54.756 : en:Глава 12
01:32:16.356 : en:Глава 13
01:39:37.435 : en:Глава 14
01:46:51.674 : en:Глава 15
Релиз от:
pb.wtf



Скачать Герой через торрент https://i87.fastpic.ru/big/2019/1028/c5/557bd152c5bdefef50d4f5c3aef03bc5.jpg Скачать фильм Герой через торрент бесплантно в хорошем качестве Описание: 15 лет назад Андрей под руководством своего отца, полковника Родина, прошел обучение в секретной спецшколе, где из подростков ... 9 10 9
Info! Золотая раздача, скачанное не засчитывается.
Торрент: Зарегистрирован [2019-10-29 16:04] · скачан: 213 раз
Статус: √ проверено
Размер: 745 MB
Как cкачать? Как скачать Герой через торрент | qTorrent

31-10-2019 15:03 Герой Скачать торрент  

Россия 1 .
Киселев , Соловьев и иже с ними в этом кино pb.wtf



    Дорогой пользователь! Огромная просьба, поблагодарите релизера, оцените раздачу и оставьте свои комментарий, если Вы скачали Герой через торрент бесплатно! Внесите свою лепту в развитие PiratBit!
    Комментировать посты могут только пользователи прошедшие не сложную регистрацию
    Показать сообщения:    

    Герой через торрент
    Скачать бесплатно Герой
    Герой скачать торрент
    Герой смотреть онлайн
    Cкачать фильм Герой бесплатно
    Герой скачать торрент в хорошем качестве
    Герой смотреть онлайн бесплатно в хорошем качестве


    Вы не можете начинать темы
    Вы не можете отвечать на сообщения
    Вы не можете редактировать свои сообщения
    Вы не можете удалять свои сообщения
    Вы не можете голосовать в опросах
    Вы не можете прикреплять файлы к сообщениям
    Вы можете скачивать файлы