новый адрес
Ссылка на приватное зеркало всего за 1$. Внимание количество ограничено!!!

iTunes

1+1

iTunes

мы

WEB-DL

1

iTunes

Чернобыль

iTunes

Ральф против интернета

Лицензия

ПШазам

Лицензия

Оно 2

Лицензия

30
pack

Вам бонус

ВАЖНО

!!Акция!!

Alien_RageХит недели

RePack

Resident Evil 21

ИГРА 18+

pack

RePack

jed

!!Акция!!

Alien_Rage

RePack

fifa19

RePack

Assassins Creed: Odyssey

RePack

NEED FOR SPEED™ PAYBACK

3 сезон

9 сезон

Бесстыжие 9 сезон

Все сериалы

все сериалы на PB.wtf

RePack

FAR CRY 5
Ребята, катастрофически не хватает 1900р. для оплаты серверов за Октябрь (всвязи с блокировками трафик упал в 3 раза), 1-2р., выручайте.
  

Синяя бездна 2 / 47 Meters Down: Uncaged (Йоханнес Робертс) [2019, ужасы, триллер, драма, приключения, BDRip-AVC] DUB [iTunes] - ExKinoRay pb.wtf

Синяя бездна 2 через торрент pb.wtf

Раздают: 14 [ 0 KB/s ] Качают: 3 [ 0 KB/s ]
Размер: 1.4 GB | Добавлен: 1 мес. 8 д. назад | Торрент скачан:128 раз
Скачать  

29-10-2019 17:20 Синяя бездна 2 Скачать торрент  

Название: Синяя бездна 2
Оригинальное название: 47 Meters Down: Uncaged
Год выпуска: 2019
Жанр: Ужасы, триллер, драма, приключения
Режиссер: Йоханнес Робертс
В ролях: Софи Нелисс, Корина Фокс, Бриэнн Тджу, Систин Роуз Сталлоне, Брэк Бэссинджер, Ниа Лонг, Джон Корбетт, Дави Сантос, Кайлин Рамбо, Аксель Мансилла

Описание: Три подруги отправляются исследовать подводный разрушенный город, но вскоре выясняют, что посмотреть на руины приплыли не они одни. Запланированное развлечение оборачивается кошмаром - теперь ныряльщицам придется спасаться от кровожадных акул.

rating

Страна: Великобритания, США
Студия: Entertainment Studios Motion Pictures, thefyzz
Продолжительность: 01:30:04
Перевод: Дублированный | iTunes
Субтитры: Русские, английские

Формат: MKV
Качество: BDRip-AVC
Видео: MPEG-4 AVC, 720x302 (2.40:1), 23.976 fps, 1854 Kbps, 0.356 bit/pixel
Аудио : 48 kHz, AC3, 5.1, 384 Kbps | iTunes | RUS |
General
Unique ID : 176864529061713037626413407442807589829 (0x850EDE87F42A8E35AB3926F070B48BC5)
Complete name : F:\47.Meters.Down.Uncaged.2019.BDRip.AVC.ExKinoRay.mkv
Format : Matroska
Format version : Version 2
File size : 1.40 GiB
Duration : 1 h 30 min
Overall bit rate : 2 228 kb/s
Movie name : 47 Meters Down Uncaged 2019 from ExKinoRay
Encoded date : UTC 2019-11-03 13:57:01
Writing application : mkvmerge v5.6.0 ('Kenya Kane') built on May 27 2012 16:44:04
Writing library : libebml v1.2.3 + libmatroska v1.3.0
Attachments : poster.jpg

Video
ID : 1
Format : AVC
Format/Info : Advanced Video Codec
Format profile : High@L4.1
Format settings, CABAC : Yes
Format settings, ReFrames : 11 frames
Codec ID : V_MPEG4/ISO/AVC
Duration : 1 h 30 min
Bit rate : 1 854 kb/s
Width : 720 pixels
Height : 302 pixels
Display aspect ratio : 2.40:1
Frame rate mode : Constant
Frame rate : 23.976 (24000/1001) FPS
Original frame rate : 23.976 (23976/1000) FPS
Color space : YUV
Chroma subsampling : 4:2:0
Bit depth : 8 bits
Scan type : Progressive
Bits/(Pixel*Frame) : 0.356
Stream size : 1.13 GiB (81%)
Title : Enigma
Writing library : x264 core 152 r2851 ba24899
Encoding settings : cabac=1 / ref=11 / deblock=1:-2:-2 / analyse=0x3:0x113 / me=umh / subme=10 / psy=1 / psy_rd=1.05:0.14 / mixed_ref=1 / me_range=32 / chroma_me=1 / trellis=2 / 8x8dct=1 / cqm=0 / deadzone=21,11 / fast_pskip=0 / chroma_qp_offset=-3 / threads=9 / lookahead_threads=2 / sliced_threads=0 / nr=0 / decimate=0 / interlaced=0 / bluray_compat=0 / constrained_intra=0 / bframes=10 / b_pyramid=2 / b_adapt=2 / b_bias=0 / direct=3 / weightb=1 / open_gop=0 / weightp=2 / keyint=240 / keyint_min=23 / scenecut=40 / intra_refresh=0 / rc=2pass / mbtree=0 / bitrate=1854 / ratetol=1.0 / qcomp=0.60 / qpmin=0 / qpmax=51 / qpstep=4 / cplxblur=20.0 / qblur=0.5 / ip_ratio=1.40 / pb_ratio=1.30 / aq=1:1.00
Default : Yes
Forced : No
Color range : Limited
Color primaries : BT.709
Transfer characteristics : BT.709
Matrix coefficients : BT.709

Audio
ID : 2
Format : AC-3
Format/Info : Audio Coding 3
Mode extension : CM (complete main)
Format settings, Endianness : Big
Codec ID : A_AC3
Duration : 1 h 30 min
Bit rate mode : Constant
Bit rate : 384 kb/s
Channel(s) : 6 channels
Channel positions : Front: L C R, Side: L R, LFE
Sampling rate : 48.0 kHz
Frame rate : 31.250 FPS (1536 spf)
Compression mode : Lossy
Stream size : 247 MiB (17%)
Title : iTunes
Language : Russian
Default : Yes
Forced : No

Text #1
ID : 3
Format : UTF-8
Codec ID : S_TEXT/UTF8
Codec ID/Info : UTF-8 Plain Text
Title : Full
Language : Russian
Default : No
Forced : No

Text #2
ID : 4
Format : UTF-8
Codec ID : S_TEXT/UTF8
Codec ID/Info : UTF-8 Plain Text
Language : English
Default : No
Forced : No

Menu
00:00:00.000 : en:00:00:00.000
00:04:53.793 : en:00:04:53.793
00:10:35.009 : en:00:10:35.009
00:14:18.107 : en:00:14:18.107
00:19:59.990 : en:00:19:59.990
00:23:56.101 : en:00:23:56.101
00:29:16.421 : en:00:29:16.421
00:35:00.390 : en:00:35:00.390
00:39:15.770 : en:00:39:15.770
00:44:44.890 : en:00:44:44.890
00:50:50.130 : en:00:50:50.130
00:54:37.232 : en:00:54:37.232
01:01:03.660 : en:01:01:03.660
01:05:18.665 : en:01:05:18.665
01:10:12.750 : en:01:10:12.750
01:15:22.518 : en:01:15:22.518


Релиз от:

Автор релиза: pb.wtf



Скачать Синяя бездна 2 через торрент https://b.radikal.ru/b36/1910/2b/700334f401cb.png Скачать фильм Синяя бездна 2 через торрент бесплантно в хорошем качестве Описание: Три подруги отправляются исследовать подводный разрушенный город, но вскоре выясняют, что посмотреть на руины приплыли не они ... 9.5 10 15
Info! Золотая раздача, скачанное не засчитывается.
Торрент: Зарегистрирован [2019-11-03 14:43] · скачан: 128 раз
Статус: √ проверено
Размер: 1.4 GB
Как cкачать? Как скачать Синяя бездна 2 через торрент | qTorrent

28-11-2019 20:33  

Отключить всю рекламу на сайте


03-11-2019 14:49 Синяя бездна 2 Скачать торрент  

Замена на BDRip-AVC.pb.wtf



10-11-2019 14:43 Синяя бездна 2 Скачать торрент  

Спасибо,отличный фильм)pb.wtf



    Дорогой пользователь! Огромная просьба, поблагодарите релизера, оцените раздачу и оставьте свои комментарий, если Вы скачали Синяя бездна 2 через торрент бесплатно! Внесите свою лепту в развитие PiratBit!
    Комментировать посты могут только пользователи прошедшие не сложную регистрацию
    Показать сообщения:    

    Синяя бездна 2 через торрент
    Скачать бесплатно Синяя бездна 2
    Синяя бездна 2 скачать торрент
    Синяя бездна 2 смотреть онлайн
    Cкачать фильм Синяя бездна 2 бесплатно
    Синяя бездна 2 скачать торрент в хорошем качестве
    Синяя бездна 2 смотреть онлайн бесплатно в хорошем качестве


    Вы не можете начинать темы
    Вы не можете отвечать на сообщения
    Вы не можете редактировать свои сообщения
    Вы не можете удалять свои сообщения
    Вы не можете голосовать в опросах
    Вы не можете прикреплять файлы к сообщениям
    Вы можете скачивать файлы