новый адрес
Ссылка на приватное зеркало всего за 1$. Внимание количество ограничено!!!

iTunes

1+1

iTunes

мы

WEB-DL

1

iTunes

Чернобыль

iTunes

Ральф против интернета

Лицензия

ПШазам

Лицензия

Оно 2

Лицензия

30
pack

Вам бонус

ВАЖНО

!!Акция!!

Alien_RageХит недели

RePack

Resident Evil 21

ИГРА 18+

pack

RePack

jed

!!Акция!!

Alien_Rage

RePack

fifa19

RePack

Assassins Creed: Odyssey

RePack

NEED FOR SPEED™ PAYBACK

3 сезон

9 сезон

Бесстыжие 9 сезон

Все сериалы

все сериалы на PB.wtf

RePack

FAR CRY 5
Ребята, катастрофически не хватает 1900р. для оплаты серверов за Октябрь (всвязи с блокировками трафик упал в 3 раза), 1-2р., выручайте.
  

Миссис Флетчер / Mrs. Fletcher / Сезон: 1 / Серии: 1-6 из 7 (Джиллиан Робеспьер, Николь Холофсенер) [2019, комедия, WEB-DL 720p] MVO [Jaskier] pb.wtf

Миссис Флетчер через торрент pb.wtf

Раздают: 1 [ 0 KB/s ]
Размер: 4.79 GB | Добавлен: 4 д. назад | Торрент скачан:4 раза
Скачать  

30-10-2019 07:01 Миссис Флетчер Скачать торрент  

Миссис Флетчер / Mrs. Fletcher
Год выпуска: 2019
Страна: США
Жанр: комедия
Продолжительность: ~ 00:30:00
Перевод: Профессиональный (многоголосый) | Jaskier
Субтитры: отсутствуют

Режиссер: Джиллиан Робеспьер, Николь Холофсенер

rating

В ролях: Кэтрин Хан, Джен Ричардс, Оуэн Тиг, Джексон Уайт, Кейси Уилсон, Рашад Эдвардс, Доменик Ломбардоззи, Кэти Кершоу, Эрика Николь Лэнс, Бретт Темпл

Описание: Ив Флетчер - мать-одиночка, чей единственный ребёнок отправился учиться в колледж. Ив решает оживить свою личную жизнь и придумывает себе сексуальное альтер эго. Неожиданно она обнаруживает, что мир скрывает в себе бесконечные возможности для эротических подвигов.

Качество: WEB-DL 720p
Формат: MKV

Видео: X264, ~ 3300 kbps, 1280x720, 23.976 fps
Аудио#1: AC3, 48,0 КГц, 6 ch, 384 kbps - RUS
Аудио#2: AC3, 48,0 КГц, 6 ch, 384 kbps - ENG
скриншот  скриншот  скриншот  

Общее
Уникальный идентификатор : 207720096982256236373861251192616630033 (0x9C456F7BCEED076CB8B1E6BC967FB711)
Полное имя : D:\Mrs.Fletcher. Season 1 (720p l Jaskier)\Mrs.Fletcher.S01E01.720p.Jaskier.mkv
Формат : Matroska
Версия формата : Version 2
Размер файла : 883 Мбайт
Продолжительность : 30 м. 37 с.
Режим общего битрейта : Постоянный
Общий поток : 4030 Кбит/сек
Дата кодирования : UTC 2019-10-30 05:55:43
Программа кодирования : mkvmerge v7.8.0 ('River Man') 32bit built on Apr 3 2015 12:11:22
Библиотека кодирования : libebml v1.3.1 + libmatroska v1.4.2

Видео
Идентификатор : 1
Формат : AVC
Формат/Информация : Advanced Video Codec
Профиль формата : High@L3.1
Параметр CABAC формата : Да
Параметр RefFrames формата : 4 кадра
Идентификатор кодека : V_MPEG4/ISO/AVC
Продолжительность : 30 м. 37 с.
Вид битрейта : Постоянный
Битрейт : 3282 Кбит/сек
Номинальный битрейт : 6000 Кбит/сек
Ширина : 1280 пикселей
Высота : 720 пикселей
Соотношение сторон : 16:9
Режим частоты кадров : Постоянный
Частота кадров : 23,976 (24000/1001) кадра/сек
Цветовое пространство : YUV
Субдискретизация насыщенности : 4:2:0
Битовая глубина : 8 бит
Тип развёртки : Прогрессивная
Бит/(Пиксели*Кадры) : 0.144
Размер потока : 697 Мбайт (79%)
Default : Да
Forced : Нет
Цветовой диапазон : Limited
Основные цвета : BT.709
Характеристики трансфера : BT.709
Коэффициенты матрицы : BT.709

Аудио #1
Идентификатор : 2
Формат : AC-3
Формат/Информация : Audio Coding 3
Расширение режима : CM (complete main)
Параметр Endianness формата : Big
Идентификатор кодека : A_AC3
Продолжительность : 30 м. 37 с.
Вид битрейта : Постоянный
Битрейт : 384 Кбит/сек
Каналы : 6 каналов
Расположение каналов : Front: L C R, Side: L R, LFE
Частота : 48,0 КГц
Частота кадров : 31,250 кадров/сек (1536 spf)
Метод сжатия : С потерями
Размер потока : 84,1 Мбайт (10%)
Язык : Russian
Default : Да
Forced : Нет

Аудио #2
Идентификатор : 3
Формат : AC-3
Формат/Информация : Audio Coding 3
Расширение режима : CM (complete main)
Параметр Endianness формата : Big
Идентификатор кодека : A_AC3
Продолжительность : 30 м. 37 с.
Вид битрейта : Постоянный
Битрейт : 384 Кбит/сек
Каналы : 6 каналов
Расположение каналов : Front: L C R, Side: L R, LFE
Частота : 48,0 КГц
Частота кадров : 31,250 кадров/сек (1536 spf)
Метод сжатия : С потерями
Размер потока : 84,1 Мбайт (10%)
Язык : English
Default : Нет
Forced : Нет

Внимание! Раздача ведётся путём добавления новых серий; при каждом добавлении создаётся новый торрент. Чтобы начать докачку новой серии, пользователям необходимо сделать следующее:
(1) остановить скачивание,
(2) удалить старый торрент у себя из клиента (старые серии удалять не надо),
(3) скачать новый торрент и запустить его у себя в клиенте вместо старого, при этом указать клиенту путь в старую папку куда и должно происходить скачивание новых серий.

Ваш клиент при этом должен произвести хеширование (проверку) старой папки (если не производит сам - помогите ему сделать это), и будет докачивать только те серии которых у вас ещё нет. Старые серии при этом не удаляются, а продолжают раздаваться!

Eсли вы уже удалили старые серии, то предотвратить повторную закачку старых серий можно, отжав галочку в соответствующих местах при запуске нового торрента. По возможности, желательно не удалять старые серии как можно дольше чтобы релизёр не столько продолжал раздавать старые серии, а смог сконцентрироваться на новых.
pb.wtf



Скачать Миссис Флетчер через торрент https://i91.fastpic.ru/big/2019/1030/40/c735253eaf9ca6f576e300038925b140.png Скачать фильм Миссис Флетчер через торрент бесплантно в хорошем качестве Описание: Ив Флетчер - мать-одиночка, чей единственный ребёнок отправился учиться в колледж. Ив решает оживить свою личную жизнь и ... 10 10 3
Торрент: Зарегистрирован [2019-12-04 16:42] · скачан: 4 раз
Статус: √ проверено
Размер: 4.79 GB
Как cкачать? Как скачать Миссис Флетчер через торрент | qTorrent

% Раздел Тема Автор DL S | L
Зарубежные сериалы [ 2.07 GB ] Миссис Флетчер / Mrs. Fletcher / Сезон: 1 / Серии: 1-6 из 7 [2019 WEB-DLRip] MVO [Jaskier] bober100 Скачать
1 | 0
Зарубежные сериалы [ 10.84 GB ] Миссис Флетчер / Mrs. Fletcher / Сезон: 1 / Серии: 1-6 из 7 [2019 WEB-DL 1080p] MVO [Jaskier] bober100 Скачать
2 | 0

28-11-2019 20:33  

Отключить всю рекламу на сайте

    Дорогой пользователь! Огромная просьба, поблагодарите релизера, оцените раздачу и оставьте свои комментарий, если Вы скачали Миссис Флетчер через торрент бесплатно! Внесите свою лепту в развитие PiratBit!
    Комментировать посты могут только пользователи прошедшие не сложную регистрацию
    Показать сообщения:    

    Миссис Флетчер через торрент
    Скачать бесплатно Миссис Флетчер
    Миссис Флетчер скачать торрент
    Миссис Флетчер смотреть онлайн
    Cкачать фильм Миссис Флетчер бесплатно
    Миссис Флетчер скачать торрент в хорошем качестве
    Миссис Флетчер смотреть онлайн бесплатно в хорошем качестве


    Вы не можете начинать темы
    Вы не можете отвечать на сообщения
    Вы не можете редактировать свои сообщения
    Вы не можете удалять свои сообщения
    Вы не можете голосовать в опросах
    Вы не можете прикреплять файлы к сообщениям
    Вы можете скачивать файлы