Достать ножи: Стеклянная луковица

MVO

Добыча

Дубляж

Уэнсдэй

1 сезон

Тор

Дубляж

13 клиническая

1 сезон

Жестокая ночь

MVO

Одни из нас

1 сезон

Deluxe

pack

Рекомендуем

30

Пиратка

ВАЖНО

ВАЖНО

Ghostwire

Пиратка

jed

RePack

nioh2

RePack

RDR2

RePack

NEED FOR SPEED™ PAYBACK

RePack

скачать торрент

Кинопоиск HD

Острые козырьки 6 сезон

6 сезон

FAR CRY 6

RePack

скачать торрент

Лицензия

скачать торрент

MVO

1

1 сезон

скачать торрент

1 сезон

скачать торрент

Лицензия

  

Война миров / War of the Worlds / Сезон: 1 / Серии: 1-8 из 8 (Жиль Кулье, Ричард Кларк) [2019, фантастика, драма, HDTV 1080p] MVO [FOX]

Война миров через торрент pb.wtf

Размер: 11.29 GB | Добавлен: 3 года 2 мес. назад | Торрент скачан:250 раз
Смотреть онлайн | Скачать | Поддержите нас   

30-10-2019 14:25 Война миров Скачать торрент  

Война миров / War of the Worlds Год выпуска: 2019
Страна: Великобритания, Франция, США
Жанр: фантастика, драма
Продолжительность: 0:48:00
Перевод: Профессиональный (многоголосый закадровый) | FOX
Субтитры: отсутствуют

Режиссёр: Жиль Кулье, Ричард Кларк

В ролях: Адель Беншериф, Гэбриел Бирн, Стефани Кайар, Леа Дрюкер, Дэйзи Эдгар-Джонс, Байо Гбадамоси, Пол Горостиди, Скотт Джеймс, Наташа Литтл, Элизабет МакГоверн

Описание: Астрономы обнаружили передачу данных из другой галактики, что является очевидным доказательством разумной внеземной жизни. Жители земли ждут дальнейшего контакта, но им не придется долго ждать.

rating семпл


Качество: HDTV 1080p
Формат: MKV

Видео: MPEG-4 AVC, ~ 4 000 Кбит/с, 1920x1080
Аудио: Русский (AAC, 2 ch, 192 Кбит/с)
скриншот  скриншот  скриншот  скриншот  

Общее
Уникальный идентификатор : 15082414552559138137378282428944318251 (0xB58C473264C911363D59ADA4FC37F2B)
Полное имя : D:\Война миров. 1 с-н - [FOX]\Война миров. 1 с-н 1 с. - [FOX].mkv
Формат : Matroska
Версия формата : Version 4 / Version 2
Размер файла : 1,41 Гбайт
Продолжительность : 47 м. 59 с.
Режим общего битрейта : Переменный
Общий поток : 4206 Кбит/сек
Дата кодирования : UTC 2019-10-29 17:53:52
Программа кодирования : mkvmerge v37.0.0 ('Leave It') 64-bit
Библиотека кодирования : libebml v1.3.9 + libmatroska v1.5.2

Видео
Идентификатор : 1
Формат : AVC
Формат/Информация : Advanced Video Codec
Профиль формата : [email protected]
Параметр CABAC формата : Да
Параметр RefFrames формата : 4 кадра
Идентификатор кодека : V_MPEG4/ISO/AVC
Продолжительность : 47 м. 59 с.
Вид битрейта : Переменный
Битрейт : 4015 Кбит/сек
Номинальный битрейт : 709 Кбит/сек
Максимальный битрейт : 4500 Кбит/сек
Ширина : 1920 пикселей
Высота : 1080 пикселей
Соотношение сторон : 16:9
Режим частоты кадров : Постоянный
Частота кадров : 25,000 кадров/сек
Цветовое пространство : YUV
Субдискретизация насыщенности : 4:2:0
Битовая глубина : 8 бит
Тип развёртки : Прогрессивная
Бит/(Пиксели*Кадры) : 0.077
Размер потока : 1,35 Гбайт (95%)
Библиотека кодирования : x264 core 152 r2245
Настройки программы : cabac=1 / ref=4 / deblock=1:0:0 / analyse=0x3:0x113 / me=hex / subme=4 / psy=1 / psy_rd=1.00:0.00 / mixed_ref=0 / me_range=16 / chroma_me=1 / trellis=1 / 8x8dct=1 / cqm=0 / deadzone=21,11 / fast_pskip=1 / chroma_qp_offset=0 / threads=6 / lookahead_threads=1 / sliced_threads=0 / nr=0 / decimate=1 / interlaced=0 / bluray_compat=0 / constrained_intra=0 / bframes=3 / b_pyramid=2 / b_adapt=1 / b_bias=0 / direct=1 / weightb=1 / open_gop=0 / weightp=1 / keyint=75 / keyint_min=7 / scenecut=0 / intra_refresh=0 / rc_lookahead=20 / rc=abr / mbtree=1 / bitrate=709 / ratetol=1.0 / qcomp=0.60 / qpmin=0 / qpmax=69 / qpstep=4 / vbv_maxrate=1419 / vbv_bufsize=13500 / nal_hrd=none / filler=0 / ip_ratio=1.40 / aq=1:1.00
Default : Да
Forced : Нет

Аудио
Идентификатор : 2
Формат : AAC
Формат/Информация : Advanced Audio Codec
Профиль формата : LC
Идентификатор кодека : A_AAC
Продолжительность : 47 м. 59 с.
Битрейт : 192 Кбит/сек
Каналы : 2 канала
Расположение каналов : Front: L R
Частота : 48,0 КГц
Частота кадров : 46,875 кадров/сек (1024 spf)
Метод сжатия : С потерями
Размер потока : 65,0 Мбайт (5%)
Язык : Russian
Default : Да
Forced : Нет

Меню
00:00:00.000 : :Chapter 1
00:19:07.200 : :Chapter 2
00:36:50.160 : :Chapter 3

При каждом добавлении создаётся новый торрент. Чтобы начать докачку новой серии, пользователям необходимо сделать следующее:
- остановить скачивание;
- удалить старый торрент у себя из клиента (старые серии удалять не надо);
- скачать новый торрент и запустить его у себя в клиенте вместо старого, при этом указать клиенту путь в старую папку, куда и должно происходить скачивание новых серий.



Скачать Война миров через торрент https://i87.fastpic.ru/big/2019/1030/5d/0f90245039f907d7537e5f14b118e65d.jpg Скачать, смотреть онлайн Война миров бесплантно в хорошем качестве Описание: Астрономы обнаружили передачу данных из другой галактики, что является очевидным доказательством разумной внеземной жизни. Жители ... 10 10 15
Info! Золотая раздача, скачанное не засчитывается.
Торрент: Зарегистрирован [2019-11-19 18:28] · скачан: 250 раз
Статус: √ проверено
Размер: 11.29 GB
Как cкачать? Как скачать Война миров через торрент | UTorrent

% Раздел Тема Автор DL S | L
Зарубежные сериалы [ 13.74 GB ] Война миров / War of the Worlds / Сезон: 3 / Серии: 1-8 из 8 | TVShows | 1080p bober100 Скачать
2 | 0
Зарубежные сериалы [ 16.09 GB ] Война миров / War of the Worlds / Сезон: 2 / Серии: 1-8 из 8 | MVO | 1080p bober100 Скачать
1 | 0
Зарубежные сериалы [ 10.04 GB ] Война миров / War of the Worlds / Сезон: 1 / Серии: 1-8 из 8 | MVO | 720p bober100 Скачать
2 | 0
Зарубежные сериалы [ 4.32 GB ] Война миров / War of the Worlds / Сезон: 1 / Серии: 1-8 из 8 | MVO | DLRip bober100 Скачать
2 | 0

28-11-2019 20:33  


Отключить вcю реклaмy на сайте, в т.ч. и в плеере онлайн просмотра!

    Дорогой пользователь! Огромная просьба, поблагодарите релизера, оцените раздачу и оставьте свои комментарий, если Вы скачали Война миров через торрент бесплатно!!
    Комментировать посты могут только пользователи прошедшие не сложную регистрацию
    Показать сообщения:    


    Война миров через торрент
    Скачать бесплатно Война миров
    Война миров скачать торрент
    Война миров смотреть онлайн
    Cкачать фильм Война миров бесплатно
    Война миров скачать торрент в хорошем качестве
    Война миров смотреть онлайн бесплатно в хорошем качестве
    Вы не можете начинать темы
    Вы не можете отвечать на сообщения
    Вы не можете редактировать свои сообщения
    Вы не можете удалять свои сообщения
    Вы не можете голосовать в опросах
    Вы не можете прикреплять файлы к сообщениям
    Вы можете скачивать файлы
    Война миров / War of the Worlds / Сезон: 1 / Серии: 1-8 из 8 [2019, фантастика, драма, HDTV 1080p] MVO [FOX] смотреть онлайн, скачать торрент picoco.icu