новый адрес
Ссылка на приватное зеркало всего за 1$. Внимание количество ограничено!!!

iTunes

1+1

iTunes

мы

WEB-DL

1

iTunes

Чернобыль

iTunes

Ральф против интернета

Лицензия

ПШазам

Лицензия

Оно 2

Лицензия

30
pack

Вам бонус

ВАЖНО

!!Акция!!

Alien_RageХит недели

RePack

Resident Evil 21

ИГРА 18+

pack

RePack

jed

!!Акция!!

Alien_Rage

RePack

fifa19

RePack

Assassins Creed: Odyssey

RePack

NEED FOR SPEED™ PAYBACK

3 сезон

9 сезон

Бесстыжие 9 сезон

Все сериалы

все сериалы на PB.wtf

RePack

FAR CRY 5
Ребята, катастрофически не хватает 1900р. для оплаты серверов за Октябрь (всвязи с блокировками трафик упал в 3 раза), 1-2р., выручайте.
  

Синяя бездна 2 / 47 Meters Down: Uncaged (Йоханнес Робертс) [2019 г., ужасы, триллер, драма, приключения, WEB-DLRip, Дубляж "iTunes"] pb.wtf

Синяя бездна 2 через торрент pb.wtf

Раздают: 2 [ 0 KB/s ] Качают: 3 [ 0 KB/s ]
Размер: 706 MB | Добавлен: 1 мес. 13 д. назад | Торрент скачан:148 раз
Скачать  

30-10-2019 18:18 Синяя бездна 2 Скачать торрент  

Синяя бездна 2 / 47 Meters Down: Uncaged
Год выпуска: 2019
Страна: Великобритания, США / Entertainment Studios Motion Pictures, thefyzz
Жанр: ужасы, триллер, драма, приключения
Продолжительность: 01:29:38
Перевод: Дубляж (iTunes)

Режиссер: Йоханнес Робертс

rating

В ролях: Софи Нелисс, Корина Фокс, Бриэнн Тджу, Систин Роуз Сталлоне, Брэк Бэссинджер, Джон Корбетт, Ниа Лонг, Аксель Мансилла, Кайлин Рамбо, Дави Сантос

Описание: Три подруги отправляются исследовать подводный разрушенный город, но вскоре выясняют, что посмотреть на руины приплыли не они одни. Запланированное развлечение оборачивается кошмаром - теперь ныряльщицам придется спасаться от кровожадных акул.

Качество: WEB-DLRip
Формат: AVI
Видео кодек: DivX
Аудио кодек: MP3
Видео: 640x272 (2.35:1), 24.000 fps, DivX Codec 4.x ~963 kbps avg, 0.23 bit/pixel
Аудио: 48 kHz, MPEG Layer 3, 2 ch, ~128.00 kbps avg
скриншот   скриншот   скриншот   скриншот  

Общее
Полное имя : F:\ФИЛЬМЫ\Синяя бездна 2.2019.D.WEB-DLRip.avi
Формат : AVI
Формат/Информация : Audio Video Interleave
Размер файла : 706 Мбайт
Продолжительность : 1 ч. 29 м.
Общий поток : 1101 Кбит/сек
Программа кодирования : VirtualDubMod 1.5.10.3 | www.virtualdub-fr.org || (build 2550/release)
Библиотека кодирования : VirtualDubMod build 2550/release

Видео
Идентификатор : 0
Формат : MPEG-4 Visual
Профиль формата : Advanced Simple@L5
Настройки формата : BVOP3 / GMC3 / QPel
Параметр BVOP формата : 3
Параметр QPel формата : Да
Параметр GMC формата : 3 точки перехода
Параметр матрицы формата : Default (MPEG)
Идентификатор кодека : DIVX
Идентификатор кодека/Информация : Project Mayo
Идентификатор кодека/Подсказка : DivX 4
Продолжительность : 1 ч. 29 м.
Битрейт : 963 Кбит/сек
Ширина : 640 пикселей
Высота : 272 пикселя
Соотношение сторон : 2,35:1
Частота кадров : 24,000 кадра/сек
Цветовое пространство : YUV
Субдискретизация насыщенности : 4:2:0
Битовая глубина : 8 бит
Тип развёртки : Прогрессивная
Метод сжатия : С потерями
Бит/(Пиксели*Кадры) : 0.231
Размер потока : 618 Мбайт (88%)
Библиотека кодирования : XviD 1.2.1 (UTC 2008-12-04)

Аудио
Идентификатор : 1
Формат : MPEG Audio
Версия формата : Version 1
Профиль формата : Layer 3
Настройки формата : Joint stereo / MS Stereo
Идентификатор кодека : 55
Идентификатор кодека/Подсказка : MP3
Продолжительность : 1 ч. 29 м.
Вид битрейта : Постоянный
Битрейт : 128 Кбит/сек
Каналы : 2 канала
Частота : 48,0 КГц
Частота кадров : 41,667 кадра/сек (1152 SPF)
Метод сжатия : С потерями
Размер потока : 82,1 Мбайт (12%)
Выравнивание : Соединение по промежуткам
Продолжительность промежутка : 42 мс. (1,00 видеокадр)
Время предзагрузки промежутка : 504 мс.
Библиотека кодирования : LAME3.99r
Настройки программы : -m j -V 4 -q 2 -lowpass 17 -b 128

pb.wtf



Скачать Синяя бездна 2 через торрент http://pic1.kartinco.top/images/12/rq5fv.jpg Скачать фильм Синяя бездна 2 через торрент бесплантно в хорошем качестве Описание: Три подруги отправляются исследовать подводный разрушенный город, но вскоре выясняют, что посмотреть на руины приплыли не они ... 8.9 10 7
Торрент: Зарегистрирован [2019-10-30 18:18] · скачан: 148 раз
Статус: √ проверено
Размер: 706 MB
Как cкачать? Как скачать Синяя бездна 2 через торрент | qTorrent

% Раздел Тема Автор DL S | L
Фильмы [HD 720p, 1080p] (Хороший звук DUB, MVO) [ 7.3 GB ] Синяя бездна 2 / 47 Meters Down: Uncaged [2019 BDRip 1080p] bober100 Скачать
2 | 0
Фильмы 2019 [DVDrip, WEB-DLRip, HDrip] (DUB, MVO) [ 1.4 GB ] Синяя бездна 2 / 47 Meters Down: Uncaged [2019 BDRip-AVC] - ExKinoRay Enigma2010 Скачать
6 | 3
Фильмы 2019 [DVDrip, WEB-DLRip, HDrip] (DUB, MVO) [ 1.42 GB ] Синяя бездна 2 / 47 Meters Down: Uncaged [2019 BDRip] - Twi7ter Скачать
79 | 4
Фильмы 2019 [DVDrip, WEB-DLRip, HDrip] (DUB, MVO) [ 741 MB ] Синяя бездна 2 / 47 Meters Down: Uncaged [2019 BDRip-AVC] - OlLanDGroup Skandar2019 Скачать
4 | 0
Фильмы 2019 [DVDrip, WEB-DLRip, HDrip] (DUB, MVO) [ 1.73 GB ] Синяя бездна 2 / 47 Meters Down: Uncaged [2019 BDRip-AVC] - OlLanDGroup Skandar2019 Скачать
3 | 0
Фильмы 2019 [DVDrip, WEB-DLRip, HDrip] (DUB, MVO) [ 1.42 GB ] Синяя бездна 2 / 47 Meters Down: Uncaged [2019 BDRip] bober100 Скачать
5 | 0
Фильмы (Blu-ray, BD-Remux, HDDVD) [ 18 GB ] Синяя бездна 2 / 47 Meters Down: Uncaged [2019 BD Remux 1080p] bober100 Скачать
1 | 0

28-11-2019 20:33  

Отключить всю рекламу на сайте

17-11-2019 08:45 Синяя бездна 2 Скачать торрент  

так себе фильмpb.wtf



    Дорогой пользователь! Огромная просьба, поблагодарите релизера, оцените раздачу и оставьте свои комментарий, если Вы скачали Синяя бездна 2 через торрент бесплатно! Внесите свою лепту в развитие PiratBit!
    Комментировать посты могут только пользователи прошедшие не сложную регистрацию
    Показать сообщения:    

    Синяя бездна 2 через торрент
    Скачать бесплатно Синяя бездна 2
    Синяя бездна 2 скачать торрент
    Синяя бездна 2 смотреть онлайн
    Cкачать фильм Синяя бездна 2 бесплатно
    Синяя бездна 2 скачать торрент в хорошем качестве
    Синяя бездна 2 смотреть онлайн бесплатно в хорошем качестве


    Вы не можете начинать темы
    Вы не можете отвечать на сообщения
    Вы не можете редактировать свои сообщения
    Вы не можете удалять свои сообщения
    Вы не можете голосовать в опросах
    Вы не можете прикреплять файлы к сообщениям
    Вы можете скачивать файлы