Ссылка на приватное зеркало нашего сайта всего за 1$. Внимание количество ограничено!!!

2 сезон

iTunes

1 сезон

1

2 сезон

2 сезон

iTunes

1 сезон

RePack

30

Ultimate

ВАЖНО

ИГРА 18+

pack

RePack

MK11
pack

Забери бонус

RePack

jed

!!Акция!!

Alien_Rage

RePack

fifa19

RePack

Assassins Creed: Odyssey

RePack

NEED FOR SPEED™ PAYBACK

4 сезон

9 сезон

Бесстыжие 9 сезон

Все сериалы

все сериалы на PB.wtf

RePack

FAR CRY 5
  

Терминатор: Да придёт спаситель / Terminator Salvation (МакДжи) [2009, Фантастика, боевик, триллер, драма, фантастика, приключения, UHD BDRip 2160p] [SDR] DUB [Лицензия] pb.wtf

Терминатор: Да придёт спаситель через торрент pb.wtf

Размер: 27.89 GB | Добавлен: 1 год 1 мес. назад | Торрент скачан:27 раз
Скачать  

31-10-2019 05:43 Терминатор: Да придёт спаситель Скачать торрент  

Терминатор: Да придёт спаситель / Terminator Salvation
Год выпуска: 2009
Страна: США, Германия, Великобритания, Италия
Студия: Halcyon Company, The, IMF Internationale Medien und Film GmbH & Co. Produktions KG
Жанр: Фантастика, боевик, триллер, драма, научная фантастика, приключения
Продолжительность: 01:54:46
Перевод: Дублированный | Лицензия
Субтитры: Русские (Forced, full), английские

Режиссер: МакДжи

rating

В ролях:

Кристиан Бэйл (John Connor), Сэм Уортингтон (Marcus Wright), Антон Ельчин (Kyle Reese), Мун Бладгуд (Blair Williams), Брайс Даллас Ховард (Kate Connor), Коммон (Barnes), Джейн Александр (Virginia), Майкл Айронсайд (General Ashdown), Иван Г’Вера (General Losenko), Крис Браунинг (Morrison), Хелена Бонем Картер (Dr. Serena Kogan), Джадагрейс (Star)
Описание: 2018 год от рождества Христова. Джон Коннор — человек, чья судьба — возглавить Сопротивление электронному мозгу Скайнет и армии Терминаторов. Но в будущее, с верой в которое он возращен, вклинивается таинственный Маркус Райт: незнакомец, чьи последние воспоминания рисуют камеру смертников. Коннор должен понять, кто такой Маркус — посланник будущего или спасшийся из прошлого. И на фоне подготовки Скайнетом решающего удара, Коннор и Райт отправляются в путешествие, приводящее их в самую сердцевину взбунтовавшейся операционной системы, где открывается ужасная тайна, кроющаяся за потенциальным уничтожением человечества.

Качество: UHD BDRip 2160p
Формат: MKV

Видео: HEVC SDR, 31700 Кбит/с, 3840x1606, 23.976 кадр/с, 10 Бит
Аудио#1: 48 kHz, AC3, 5.1, 640 Kbps | Лицензия | RUS |
Аудио#2: 48 kHz, DTS-HD MA, 5.1, 2424 Kbps | Оригинал | ENG |
скриншот  скриншот  скриншот  

скриншот  скриншот  скриншот  

Общее
Уникальный идентификатор : 207342942924227728740580778855876477784 (0x9BFCCC5A57A225DDA6CCE51A6CA34358)
Полное имя : D:\Передел\Terminator.Salvation.2009.2160p.UHD.BDRip.SDR.x265.10bit.Master5.mkv
Формат : Matroska
Версия формата : Version 4
Размер файла : 27,9 Гбайт
Продолжительность : 1 ч. 54 м.
Режим общего битрейта : Переменный
Общий поток : 34,8 Мбит/сек
Название фильма : Terminator.Salvation.2009.2160p.UHD.BDRip.SDR.x265.10bit.Master5
Дата кодирования : UTC 2019-10-30 20:23:15
Программа кодирования : mkvmerge v7.9.0 ('Birds') 64bit
Библиотека кодирования : libebml v1.3.1 + libmatroska v1.4.2
Обложка : Yes
Attachments : cover_land.jpg / small_cover.jpg / small_cover_land.jpg / cover.jpg

Видео
Идентификатор : 1
Формат : HEVC
Формат/Информация : High Efficiency Video Coding
Профиль формата : Main 10@L5.1@High
Идентификатор кодека : V_MPEGH/ISO/HEVC
Продолжительность : 1 ч. 54 м.
Битрейт : 31,7 Мбит/сек
Ширина : 3840 пикселей
Высота : 1606 пикселей
Соотношение сторон : 2,40:1
Режим частоты кадров : Постоянный
Частота кадров : 23,976 (24000/1001) кадра/сек
Цветовое пространство : YUV
Субдискретизация насыщенности : 4:2:0
Битовая глубина : 10 бит
Бит/(Пиксели*Кадры) : 0.215
Размер потока : 25,4 Гбайт (91%)
Заголовок : Terminator.Salvation.2009.2160p.UHD.BDRip.SDR.x265.10bit.Master5
Библиотека кодирования : x265 3.0+1-ed72af837053:[Windows][GCC 8.2.0][64 bit] 10bit
Настройки программы : cpuid=1111039 / frame-threads=16 / numa-pools=44,44 / wpp / no-pmode / no-pme / no-psnr / no-ssim / log-level=2 / input-csp=1 / input-res=3840x1606 / interlace=0 / total-frames=165106 / level-idc=51 / high-tier=1 / uhd-bd=0 / ref=3 / no-allow-non-conformance / repeat-headers / annexb / aud / hrd / info / hash=0 / no-temporal-layers / no-open-gop / min-keyint=1 / keyint=24 / gop-lookahead=0 / bframes=4 / b-adapt=2 / b-pyramid / bframe-bias=0 / rc-lookahead=25 / lookahead-slices=4 / scenecut=40 / radl=0 / no-splice / no-intra-refresh / ctu=64 / min-cu-size=8 / no-rect / no-amp / max-tu-size=32 / tu-inter-depth=1 / tu-intra-depth=1 / limit-tu=0 / rdoq-level=0 / dynamic-rd=0.00 / no-ssim-rd / signhide / no-tskip / nr-intra=0 / nr-inter=0 / no-constrained-intra / strong-intra-smoothing / max-merge=2 / limit-refs=3 / no-limit-modes / me=1 / subme=2 / merange=57 / temporal-mvp / weightp / no-weightb / no-analyze-src-pics / deblock=0:0 / no-sao / no-sao-non-deblock / rd=3 / no-early-skip / rskip / no-fast-intra / no-tskip-fast / no-cu-lossless / no-b-intra / no-splitrd-skip / rdpenalty=0 / psy-rd=2.00 / psy-rdoq=0.00 / no-rd-refine / no-lossless / cbqpoffs=0 / crqpoffs=0 / rc=crf / crf=16.0 / qcomp=0.60 / qpstep=4 / stats-write=0 / stats-read=0 / vbv-maxrate=160000 / vbv-bufsize=160000 / vbv-init=0.9 / crf-max=0.0 / crf-min=0.0 / ipratio=1.40 / pbratio=1.30 / aq-mode=1 / aq-strength=1.00 / cutree / zone-count=0 / no-strict-cbr / qg-size=32 / no-rc-grain / qpmax=69 / qpmin=0 / no-const-vbv / sar=1 / overscan=0 / videoformat=5 / range=0 / colorprim=2 / transfer=2 / colormatrix=2 / chromaloc=0 / display-window=0 / max-cll=0,0 / min-luma=0 / max-luma=1023 / log2-max-poc-lsb=8 / vui-timing-info / vui-hrd-info / slices=1 / opt-qp-pps / opt-ref-list-length-pps / no-multi-pass-opt-rps / scenecut-bias=0.05 / no-opt-cu-delta-qp / no-aq-motion / no-hdr / no-hdr-opt / no-dhdr10-opt / no-idr-recovery-sei / analysis-reuse-level=5 / scale-factor=0 / refine-intra=0 / refine-inter=0 / refine-mv=0 / refine-ctu-distortion=0 / no-limit-sao / ctu-info=0 / no-lowpass-dct / refine-analysis-type=0 / copy-pic=1 / max-ausize-factor=1.0 / no-dynamic-refine / no-single-sei / no-hevc-aq / qp-adaptation-range=1.00
Default : Да
Forced : Нет

Аудио #1
Идентификатор : 2
Формат : AC-3
Формат/Информация : Audio Coding 3
Коммерческое название : Dolby Digital
Идентификатор кодека : A_AC3
Продолжительность : 1 ч. 54 м.
Вид битрейта : Постоянный
Битрейт : 640 Кбит/сек
Каналы : 6 каналов
Channel layout : L R C LFE Ls Rs
Частота : 48,0 КГц
Частота кадров : 31,250 кадров/сек (1536 SPF)
Битовая глубина : 16 бит
Метод сжатия : С потерями
Размер потока : 525 Мбайт (2%)
Заголовок : Dub License
Язык : Russian
ServiceKind/String : Complete Main
Default : Да
Forced : Да

Аудио #2
Идентификатор : 3
Формат : DTS XLL
Формат/Информация : Digital Theater Systems
Коммерческое название : DTS-HD Master Audio
Идентификатор кодека : A_DTS
Продолжительность : 1 ч. 54 м.
Вид битрейта : Переменный
Битрейт : 2424 Кбит/сек
Каналы : 6 каналов
Channel layout : C L R Ls Rs LFE
Частота : 48,0 КГц
Частота кадров : 93,750 кадра/сек (512 SPF)
Битовая глубина : 16 бит
Метод сжатия : Без потерь
Размер потока : 1,94 Гбайт (7%)
Заголовок : Original
Язык : English
Default : Нет
Forced : Нет

Текст #1
Идентификатор : 4
Формат : UTF-8
Идентификатор кодека : S_TEXT/UTF8
Идентификатор кодека/Информация : UTF-8 Plain Text
Продолжительность : 1 ч. 17 м.
Битрейт : 2 бит/сек
ElementCount : 25
Размер потока : 1,15 Кбайт (0%)
Заголовок : Forced
Язык : Russian
Default : Да
Forced : Да

Текст #2
Идентификатор : 5
Формат : UTF-8
Идентификатор кодека : S_TEXT/UTF8
Идентификатор кодека/Информация : UTF-8 Plain Text
Продолжительность : 1 ч. 45 м.
Битрейт : 53 бит/сек
ElementCount : 833
Размер потока : 41,7 Кбайт (0%)
Заголовок : Full
Язык : Russian
Default : Нет
Forced : Нет

Текст #3
Идентификатор : 6
Формат : UTF-8
Идентификатор кодека : S_TEXT/UTF8
Идентификатор кодека/Информация : UTF-8 Plain Text
Продолжительность : 1 ч. 44 м.
Битрейт : 30 бит/сек
ElementCount : 709
Размер потока : 23,5 Кбайт (0%)
Заголовок : Full
Язык : English
Default : Нет
Forced : Нет

Меню
00:00:00.000 : en:00:00:00.000
00:04:10.834 : en:00:04:10.834
00:14:30.620 : en:00:14:30.620
00:21:08.392 : en:00:21:08.392
00:29:11.500 : en:00:29:11.500
00:34:25.146 : en:00:34:25.146
00:41:06.839 : en:00:41:06.839
00:50:15.888 : en:00:50:15.888
00:56:20.210 : en:00:56:20.210
01:06:19.184 : en:01:06:19.184
01:15:24.854 : en:01:15:24.854
01:22:50.674 : en:01:22:50.674
01:30:35.513 : en:01:30:35.513
01:34:55.481 : en:01:34:55.481
01:38:54.178 : en:01:38:54.178
01:42:43.366 : en:01:42:43.366

pb.wtf



Скачать Терминатор: Да придёт спаситель через торрент https://img15.lostpic.net/2019/10/28/d1a87ae5a513cc0d12f2a2ee3c281722.jpg Скачать фильм Терминатор: Да придёт спаситель через торрент бесплантно в хорошем качестве Описание: 2018 год от рождества Христова. Джон Коннор — человек, чья судьба — возглавить Сопротивление электронному мозгу Скайнет и армии ... 10 10 4
Торрент: Зарегистрирован [2019-10-31 05:43] · скачан: 27 раз
Статус: √ проверено
Размер: 27.89 GB
Как cкачать? Как скачать Терминатор: Да придёт спаситель через торрент | qTorrent

% Раздел Тема Автор DL S | L
Ultra HD (UHD: 2K, 4K, 8K) — видео сверхвысокой чёткости [ 15.34 GB ] Терминатор: Да придёт спаситель / Terminator Salvation [2009 UHD BDRip 2160p] DUB [] bober100 Скачать
2 | 0
Ultra HD (UHD: 2K, 4K, 8K) — видео сверхвысокой чёткости [ 41.13 GB ] Терминатор: Да придёт спаситель / Terminator Salvation [2009 UHD BDRemux 2160p] DUB [] bober100 Скачать
2 | 0
Фильмы без перевода [ 53.12 GB ] Терминатор: Да придёт спаситель / Terminator Salvation [2009 UHD Blu-ray EUR 2160p] RUS SUB sheker187 Скачать
1 | 0
Фильмы [HD 720p, 1080p] (Хороший звук DUB, MVO) [ 6.42 GB ] Терминатор: Да придёт спаситель / Terminator Salvation [2009 BDRip 1080p HEVC ()] [Director's Cut] Мичман37 Скачать
1 | 0
Фильмы 2009 [ 1.46 GB ] Терминатор: Да придёт спаситель / Terminator Salvation [2009 ... HDRip] Venxxx Скачать
1 | 0
Фильмы с авторской озвучкой [ 1.9 GB ] Терминатор: Да придёт спаситель / Terminator Salvation [2009 SATRip] [Театральная версия ] 4x[AVO] killermax2013 Скачать
1 | 0
Фильмы [HD 720p, 1080p] (Хороший звук DUB, MVO) [ 5.84 GB ] Терминатор: Да придёт спаситель / Terminator Salvation [2009 BDRip DUB ] VintMosina Скачать
1 | 0

28-11-2019 20:33  

Отключить всю рекламу на сайте

    Дорогой пользователь! Огромная просьба, поблагодарите релизера, оцените раздачу и оставьте свои комментарий, если Вы скачали Терминатор: Да придёт спаситель через торрент бесплатно! Внесите свою лепту в развитие PiratBit!
    Комментировать посты могут только пользователи прошедшие не сложную регистрацию
    Показать сообщения:    

    Терминатор: Да придёт спаситель через торрент
    Скачать бесплатно Терминатор: Да придёт спаситель
    Терминатор: Да придёт спаситель скачать торрент
    Терминатор: Да придёт спаситель смотреть онлайн
    Cкачать фильм Терминатор: Да придёт спаситель бесплатно
    Терминатор: Да придёт спаситель скачать торрент в хорошем качестве
    Терминатор: Да придёт спаситель смотреть онлайн бесплатно в хорошем качестве


    Вы не можете начинать темы
    Вы не можете отвечать на сообщения
    Вы не можете редактировать свои сообщения
    Вы не можете удалять свои сообщения
    Вы не можете голосовать в опросах
    Вы не можете прикреплять файлы к сообщениям
    Вы можете скачивать файлы