Ссылка на приватное зеркало нашего сайта всего за 1$. Внимание количество ограничено!!!

2 сезон

iTunes

1 сезон

1

2 сезон

2 сезон

iTunes

1 сезон

RePack

30

Новинка

ВАЖНО

ИГРА 18+

pack

RePack

MK11
pack

Забери бонус

RePack

jed

!!Акция!!

Alien_Rage

RePack

fifa19

RePack

Assassins Creed: Odyssey

RePack

NEED FOR SPEED™ PAYBACK

4 сезон

9 сезон

Бесстыжие 9 сезон

Все сериалы

все сериалы на PB.wtf

RePack

FAR CRY 5
  

Хорошие мальчики / Хорошие ребята / Good Boys (Джин Ступницки) [2019, Комедия, приключения, BD Remux 1080p] DUB (rus, ukr) [Лицензия] pb.wtf

Хорошие мальчики через торрент pb.wtf

Раздают: 1 [ 0 KB/s ]
Размер: 22.6 GB | Добавлен: 9 мес. назад | Торрент скачан:25 раз
Скачать  

31-10-2019 10:55 Хорошие мальчики Скачать торрент  

Хорошие мальчики | Хорошие ребята | Good Boys
Год выпуска: 2019
Страна: США
Студия: Good Universe, Point Grey Pictures, Universal Pictures
Жанр: Комедия, приключения
Продолжительность: 01:29:37
Перевод: Дублированный | Лицензия BD EUR
Субтитры: Русские (Forced, full), английские

Режиссер: Джин Ступницки

rating

В ролях: Джейкоб Трамбле, Кит Л. Уильямс, Брэйди Нун, Молли Гордон, Мидори Френсис, Исаак Ванг, Милли Дэвис, Джош Барклай Карас, Уилл Форте, Мариесса Портеланс

Описание: История троих друзей-шестиклассников, планирующих посетить крутую вечеринку. Но прежде они должны хорошенько подготовиться, чтобы не ударить в грязь лицом. Так начинается безумное путешествие по долине Сан-Фернандо, в котором надо вернуть наркотики, украсть пиво и починить сломанного дрона - все это нужно сделать, пока родители не вернулись домой.

Качество: BD Remux 1080p
Формат: MKV

Видео: MPEG-4 AVC, 1920x1080, 31.3 Mbit/s, 23.976 fps
Аудио #01: 48 kHz, DTS, 5.1, 768 Kbps | Дублированный | RUS |
Аудио #02: 48 kHz, AC3, 5.1, 448 Kbps | Дублированный | RUS |
Аудио #03: 48 kHz, AC3, 2.0, 192 Kbps | Дублированный | UKR |
Аудио #04: 48 kHz, DTS-HD MA, 5.1, 3425 Kbps | Оригинал | ENG |
скриншот  скриншот  скриншот  скриншот  скриншот  

General
Unique ID : 338106739679305684811000342067914523981 (0xFE5CFD4B988B24EA4E991810EAD4C54D)
Complete name : D:Good.Boys.2019.Lic.BDREMUX.1080p.seleZen.mkv
Format : Matroska
Format version : Version 4
File size : 22.6 GiB
Duration : 1 h 29 min
Overall bit rate mode : Variable
Overall bit rate : 36.1 Mb/s
Movie name : Good Boys 2019 from селезень
Encoded date : UTC 2020-01-29 10:26:19
Writing application : mkvmerge v40.0.0 ('Old Town Road + Pony') 64-bit
Writing library : libebml v1.3.9 + libmatroska v1.5.2

Video
ID : 1
Format : AVC
Format/Info : Advanced Video Codec
Format profile : High@L4.1
Format settings : CABAC / 4 Ref Frames
Format settings, CABAC : Yes
Format settings, Reference : 4 frames
Format settings, GOP : M=3, N=12
Codec ID : V_MPEG4/ISO/AVC
Duration : 1 h 29 min
Bit rate mode : Variable
Bit rate : 31.3 Mb/s
Maximum bit rate : 34.7 Mb/s
Width : 1 920 pixels
Height : 1 080 pixels
Display aspect ratio : 16:9
Frame rate mode : Constant
Frame rate : 23.976 (24000/1001) FPS
Color space : YUV
Chroma subsampling : 4:2:0
Bit depth : 8 bits
Scan type : Progressive
Bits/(Pixel*Frame) : 0.629
Stream size : 19.6 GiB (87%)
Language : English
Default : Yes
Forced : No

Audio #1
ID : 2
Format : DTS
Format/Info : Digital Theater Systems
Codec ID : A_DTS
Duration : 1 h 29 min
Bit rate mode : Constant
Bit rate : 768 kb/s
Channel(s) : 6 channels
Channel layout : C L R Ls Rs LFE
Sampling rate : 48.0 kHz
Frame rate : 93.750 FPS (512 SPF)
Bit depth : 24 bits
Compression mode : Lossy
Stream size : 492 MiB (2%)
Title : Dub [License]
Language : Russian
Default : Yes
Forced : Yes

Audio #2
ID : 3
Format : AC-3
Format/Info : Audio Coding 3
Commercial name : Dolby Digital
Codec ID : A_AC3
Duration : 1 h 29 min
Bit rate mode : Constant
Bit rate : 448 kb/s
Channel(s) : 6 channels
Channel layout : L R C LFE Ls Rs
Sampling rate : 48.0 kHz
Frame rate : 31.250 FPS (1536 SPF)
Compression mode : Lossy
Stream size : 287 MiB (1%)
Title : Dub [License]
Language : Russian
Service kind : Complete Main
Default : No
Forced : No

Audio #3
ID : 4
Format : AC-3
Format/Info : Audio Coding 3
Commercial name : Dolby Digital
Codec ID : A_AC3
Duration : 1 h 29 min
Bit rate mode : Constant
Bit rate : 192 kb/s
Channel(s) : 2 channels
Channel layout : L R
Sampling rate : 48.0 kHz
Frame rate : 31.250 FPS (1536 SPF)
Compression mode : Lossy
Stream size : 123 MiB (1%)
Title : Dub
Language : Ukrainian
Service kind : Complete Main
Default : No
Forced : No

Audio #4
ID : 5
Format : DTS XLL
Format/Info : Digital Theater Systems
Commercial name : DTS-HD Master Audio
Codec ID : A_DTS
Duration : 1 h 29 min
Bit rate mode : Variable
Bit rate : 3 425 kb/s
Channel(s) : 6 channels
Channel layout : C L R Ls Rs LFE
Sampling rate : 48.0 kHz
Frame rate : 93.750 FPS (512 SPF)
Bit depth : 24 bits
Compression mode : Lossless
Stream size : 2.14 GiB (9%)
Title : Original
Language : English
Default : No
Forced : No

Text #1
ID : 6
Format : UTF-8
Codec ID : S_TEXT/UTF8
Codec ID/Info : UTF-8 Plain Text
Duration : 1 h 28 min
Bit rate : 3 b/s
Count of elements : 53
Stream size : 2.17 KiB (0%)
Title : Forced
Language : Russian
Default : Yes
Forced : Yes

Text #2
ID : 7
Format : UTF-8
Codec ID : S_TEXT/UTF8
Codec ID/Info : UTF-8 Plain Text
Duration : 1 h 28 min
Bit rate : 101 b/s
Count of elements : 1454
Stream size : 65.9 KiB (0%)
Title : Full
Language : Russian
Default : No
Forced : No

Text #3
ID : 8
Format : UTF-8
Codec ID : S_TEXT/UTF8
Codec ID/Info : UTF-8 Plain Text
Duration : 1 h 22 min
Bit rate : 82 b/s
Count of elements : 1554
Stream size : 49.3 KiB (0%)
Language : English
Default : No
Forced : No

Menu
00:00:00.000 : en:00:00:00.000
00:03:54.025 : en:00:03:54.025
00:09:00.165 : en:00:09:00.165
00:11:51.169 : en:00:11:51.169
00:15:08.658 : en:00:15:08.658
00:17:29.840 : en:00:17:29.840
00:21:20.696 : en:00:21:20.696
00:27:27.646 : en:00:27:27.646
00:31:25.675 : en:00:31:25.675
00:35:06.104 : en:00:35:06.104
00:40:11.868 : en:00:40:11.868
00:47:16.208 : en:00:47:16.208
00:51:01.183 : en:00:51:01.183
00:57:54.388 : en:00:57:54.388
01:02:27.953 : en:01:02:27.953
01:06:46.544 : en:01:06:46.544
01:09:56.901 : en:01:09:56.901
01:14:19.497 : en:01:14:19.497
01:20:00.796 : en:01:20:00.796
01:23:35.427 : en:01:23:35.427

pb.wtf



Скачать Хорошие мальчики через торрент https://img15.lostpic.net/2020/01/12/2f22fc6e397903cc414a08d6db979084.jpg Скачать фильм Хорошие мальчики через торрент бесплантно в хорошем качестве Описание: История троих друзей-шестиклассников, планирующих посетить крутую вечеринку. Но прежде они должны хорошенько подготовиться, чтобы ... 7.6 10 8
Торрент: Зарегистрирован [2020-01-29 10:37] · скачан: 25 раз
Статус: √ проверено
Размер: 22.6 GB
Как cкачать? Как скачать Хорошие мальчики через торрент | qTorrent

% Раздел Тема Автор DL S | L
Фильмы [HD 720p, 1080p] (Хороший звук DUB, MVO) [ 10.24 GB ] Хорошие мальчики / Хорошие ребята / Good Boys [2019 BDRip 1080p] DUB [] bober100 Скачать
1 | 0
Фильмы (Blu-ray, BD-Remux, HDDVD) [ 34.76 GB ] Хорошие мальчики / Хорошие ребята / Good Boys [2019 Blu-Ray EUR 1080p 1080p] DUB [] bober100 Скачать
1 | 0
Фильмы 2019-2020 [DVDrip, WEB-DLRip, HDrip] (DUB, MVO) [ 1.46 GB ] Хорошие мальчики / Хорошие ребята / Good Boys [2019 BDRip] - [] Twi7ter Скачать
5 | 0
Фильмы 2019-2020 [DVDrip, WEB-DLRip, HDrip] (DUB, MVO) [ 1.46 GB ] Хорошие мальчики / Хорошие ребята / Good Boys [2019 BDRip] DUB [] bober100 Скачать
1 | 0
Фильмы [HD 720p, 1080p] (Хороший звук DUB, MVO) [ 5.31 GB ] Хорошие мальчики / Хорошие ребята / Good Boys [2019 BDRip 720p] DUB [] bober100 Скачать
2 | 0

28-11-2019 20:33  

Отключить всю рекламу на сайте

    Дорогой пользователь! Огромная просьба, поблагодарите релизера, оцените раздачу и оставьте свои комментарий, если Вы скачали Хорошие мальчики через торрент бесплатно! Внесите свою лепту в развитие PiratBit!
    Комментировать посты могут только пользователи прошедшие не сложную регистрацию
    Показать сообщения:    

    Хорошие мальчики через торрент
    Скачать бесплатно Хорошие мальчики
    Хорошие мальчики скачать торрент
    Хорошие мальчики смотреть онлайн
    Cкачать фильм Хорошие мальчики бесплатно
    Хорошие мальчики скачать торрент в хорошем качестве
    Хорошие мальчики смотреть онлайн бесплатно в хорошем качестве


    Вы не можете начинать темы
    Вы не можете отвечать на сообщения
    Вы не можете редактировать свои сообщения
    Вы не можете удалять свои сообщения
    Вы не можете голосовать в опросах
    Вы не можете прикреплять файлы к сообщениям
    Вы можете скачивать файлы