новый адрес
Ссылка на приватное зеркало всего за 1$. Внимание количество ограничено!!!

iTunes

1+1

iTunes

мы

WEB-DL

1

iTunes

Чернобыль

iTunes

Ральф против интернета

Лицензия

ПШазам

Лицензия

Оно 2

Лицензия

30
pack

Вам бонус

ВАЖНО

!!Акция!!

Alien_RageХит недели

RePack

Resident Evil 21

ИГРА 18+

pack

RePack

jed

!!Акция!!

Alien_Rage

RePack

fifa19

RePack

Assassins Creed: Odyssey

RePack

NEED FOR SPEED™ PAYBACK

3 сезон

9 сезон

Бесстыжие 9 сезон

Все сериалы

все сериалы на PB.wtf

RePack

FAR CRY 5
Ребята, катастрофически не хватает 1900р. для оплаты серверов за Октябрь (всвязи с блокировками трафик упал в 3 раза), 1-2р., выручайте.
  

Кремниевая долина / Силиконовая долина / Silicon Valley / Сезон: 6 / Серии: 1-7 из 7 (Майк Джадж) [2019, комедия, WEB-DL 1080p] DVO [Кубик в кубе] pb.wtf

Кремниевая долина через торрент pb.wtf

Раздают: 4 [ 665 KB/s ] Качают: 5 [ 0 KB/s ]
Размер: 16.23 GB | Добавлен: 9 ч. назад | Торрент скачан:7 раз
Скачать  

31-10-2019 13:40 Кремниевая долина Скачать торрент  

Силиконовая долина / Кремниевая долина / Silicon Valley Год выпуска: 2019
Страна: США
Жанр: комедия
Продолжительность: ~ 00:30:00 мин.
Перевод: Профессиональный (двухголосый закадровый) | Кубик в кубе
Субтитры: английские (SDH)

Режиссёры: Майк Джадж, Алек Берг, Джеми Бэббит, Лиза Джонсон

В ролях: Томас Миддлдитч, Джош Бренер, Мартин Старр, Кумэйл Нанджиани, Аманда Крю, Зак Вудс, Мэтт Росс, Сюзанн Крайер, Джимми О. Ян, Крис Диамантополос, Крис Уильямс, Бернард Уайт

Описание: История о группе гиков, готовящих к запуску собственные стартапы в высокотехнологичном центре Сан-Франциско. В заключительном сезоне компания «Пегий Дудочник», за развитием и ростом которой зрители следили целых пять лет, становится настоящим технологическим гигантом. Но большой успех не обходится без проблем — и появляются они обычно одновременно. Ричард Хендрикс предстанет на слушаниях в Конгрессе США — такие вопросы самого Марка Цукерберга застали бы врасплох. «Переизобрести Интернет», как мечталось команде, тоже оказывается не так просто. Итак, готовы ли герои выдержать то, к чему так долго стремились?




Тип релиза: WEB-DL 1080p | Silicon.Valley.S06.1080p.REPACK.AMZN.WEB-DL.DDP5.1.H.264-NTb
Формат: MKV

Видео: AVC, 1920x1080 (16:9), 23.976 fps, 8757 kbps
Аудио №1: AC3, 48 kHz, 2 ch, 192 kbps (CBR)
Аудио №2: E-AC3, 48 kHz, 6 ch, 640 kbps (CBR)
1. Искусственное отсутствие интеллекта (Artificial Lack of Intelligence)
Общее
Полное имя                               : Silicon-Valley-S06E01-KvK-1080p-FlyVERz.mkv
Формат                                   : Matroska
Версия формата                           : Version 4
Размер файла                             : 2,21 Гбайт
Продолжительность                        : 32 м. 59 с.
Общий поток                              : 9591 Кбит/сек
Дата кодирования                         : UTC 2019-10-31 22:18:55
Программа кодирования                    : mkvmerge v37.0.0 ('Leave It') 64-bit
Библиотека кодирования                   : libebml v1.3.9 + libmatroska v1.5.2

Видео
Идентификатор                            : 1
Формат                                   : AVC
Формат/Информация                        : Advanced Video Codec
Профиль формата                          : High@L4
Настройки формата                        : CABAC / 4 Ref Frames
Параметр CABAC формата                   : Да
Параметр RefFrames формата               : 4 кадра
Идентификатор кодека                     : V_MPEG4/ISO/AVC
Продолжительность                        : 32 м. 59 с.
Вид битрейта                             : Постоянный
Битрейт                                  : 8757 Кбит/сек
Номинальный битрейт                      : 10000 Кбит/сек
Ширина                                   : 1920 пикселей
Высота                                   : 1080 пикселей
Соотношение сторон                       : 16:9
Режим частоты кадров                     : Постоянный
Частота кадров                           : 23,976 (24000/1001) кадра/сек
Цветовое пространство                    : YUV
Субдискретизация насыщенности            : 4:2:0
Битовая глубина                          : 8 бит
Тип развёртки                            : Прогрессивная
Бит/(Пиксели*Кадры)                      : 0.176
Размер потока                            : 2,02 Гбайт (91%)
Default                                  : Да
Forced                                   : Нет
Цветовой диапазон                        : Limited
Основные цвета                           : BT.709
Характеристики трансфера                 : BT.709
Коэффициенты матрицы                     : BT.709

Аудио #1
Идентификатор                            : 2
Формат                                   : AC-3
Формат/Информация                        : Audio Coding 3
Коммерческое название                    : Dolby Digital
Идентификатор кодека                     : A_AC3
Продолжительность                        : 32 м. 59 с.
Вид битрейта                             : Постоянный
Битрейт                                  : 192 Кбит/сек
Каналы                                   : 2 канала
ChannelLayout                            : L R
Частота                                  : 48,0 КГц
Частота кадров                           : 31,250 кадров/сек (1536 SPF)
Метод сжатия                             : С потерями
Размер потока                            : 45,3 Мбайт (2%)
Заголовок                                : Кубик в Кубе
Язык                                     : Russian
ServiceKind/String                       : Complete Main
Default                                  : Да
Forced                                   : Нет

Аудио #2
Идентификатор                            : 3
Формат                                   : E-AC-3
Формат/Информация                        : Enhanced AC-3
Коммерческое название                    : Dolby Digital Plus
Идентификатор кодека                     : A_EAC3
Продолжительность                        : 32 м. 59 с.
Вид битрейта                             : Постоянный
Битрейт                                  : 640 Кбит/сек
Каналы                                   : 6 каналов
ChannelLayout                            : L R C LFE Ls Rs
Частота                                  : 48,0 КГц
Частота кадров                           : 31,250 кадров/сек (1536 SPF)
Метод сжатия                             : С потерями
Задержка видео                           : 26 мс.
Размер потока                            : 151 Мбайт (7%)
Заголовок                                : English
Язык                                     : English
ServiceKind/String                       : Complete Main
Default                                  : Нет
Forced                                   : Нет

Текст
Идентификатор                            : 4
Формат                                   : UTF-8
Идентификатор кодека                     : S_TEXT/UTF8
Идентификатор кодека/Информация          : UTF-8 Plain Text
Продолжительность                        : 32 м. 51 с.
Битрейт                                  : 104 бит/сек
ElementCount                             : 788
Размер потока                            : 25,1 Кбайт (0%)
Заголовок                                : SDH
Язык                                     : English
Default                                  : Нет
Forced                                   : Нет
Раздача ведётся путём добавления новых серий; при каждом добавлении создаётся новый торрент.
Чтобы начать докачку новой серии, пользователям необходимо сделать следующее:
1. остановить скачивание,
2. удалить старый торрент у себя из клиента (старые серии удалять не надо),
3. скачать новый торрент и запустить его у себя в клиенте вместо старого, при этом указать клиенту путь в старую папку, куда и должно происходить скачивание новых серий.

Ваш клиент при этом должен произвести хеширование (проверку) старой папки (если не производит сам - помогите ему сделать это), и будет докачивать только те серии которых у вас ещё нет. Старые серии при этом не удаляются, а продолжают раздаваться!

Eсли вы уже удалили старые серии, то предотвратить повторную закачку старых серий можно, отжав галочку в соответствующих местах при запуске нового торрента. По возможности, желательно не удалять старые серии как можно дольше, чтобы релизёр не столько продолжал раздавать старые серии, а смог сконцентрироваться на новых.

Совет для тех, кто не хочет ждать перехеширования:
Создайте ещё одну папку рядом с папкой сериала (рядом, а не в ней!!!). Каждую новую серию после удачной загрузки копируйте в новую папку так чтобы ваша основная папка всегда была пуста. Когда ваш новый торрент предложит вам закачать все файлы, выберете только последнюю. Для сидирования же укажите адрес новой папки.

Как закачать отдельный файл из торрента или докачать ранее пропущенные файлы торрента!
pb.wtf



Скачать Кремниевая долина через торрент https://i4.imageban.ru/out/2019/10/29/34aef9665aba5620b5ae194bf3778056.jpg Скачать фильм Кремниевая долина через торрент бесплантно в хорошем качестве Описание: История о группе гиков, готовящих к запуску собственные стартапы в высокотехнологичном центре Сан-Франциско. В заключительном ... 10 10 5
Торрент: Зарегистрирован [2019-12-09 20:10] · скачан: 7 раз
Статус: √ проверено
Размер: 16.23 GB
Как cкачать? Как скачать Кремниевая долина через торрент | qTorrent

% Раздел Тема Автор DL S | L
Зарубежные сериалы [ 8.15 GB ] Кремниевая долина / Силиконовая долина / Silicon Valley / Сезон: 6 / Серии: 1-7 из 7 [2019 WEB-DL 720p] DVO [Кубик в кубе] bober100 Скачать
1 | 4
Зарубежные сериалы [ 7.93 GB ] Силиконовая долина / Кремниевая долина / Silicon Valley / Сезон: 6 / Серии: 1-4 из 7 [2019 WEB-DL 1080p] MVO [Greb&Creative / Amedia] bober100 Скачать
3 | 0

28-11-2019 20:33  

Отключить всю рекламу на сайте

    Дорогой пользователь! Огромная просьба, поблагодарите релизера, оцените раздачу и оставьте свои комментарий, если Вы скачали Кремниевая долина через торрент бесплатно! Внесите свою лепту в развитие PiratBit!
    Комментировать посты могут только пользователи прошедшие не сложную регистрацию
    Показать сообщения:    

    Кремниевая долина через торрент
    Скачать бесплатно Кремниевая долина
    Кремниевая долина скачать торрент
    Кремниевая долина смотреть онлайн
    Cкачать фильм Кремниевая долина бесплатно
    Кремниевая долина скачать торрент в хорошем качестве
    Кремниевая долина смотреть онлайн бесплатно в хорошем качестве


    Вы не можете начинать темы
    Вы не можете отвечать на сообщения
    Вы не можете редактировать свои сообщения
    Вы не можете удалять свои сообщения
    Вы не можете голосовать в опросах
    Вы не можете прикреплять файлы к сообщениям
    Вы можете скачивать файлы