новый адрес
Ссылка на приватное зеркало всего за 1$. Внимание количество ограничено!!!

iTunes

1+1

iTunes

мы

WEB-DL

1

iTunes

Чернобыль

iTunes

Ральф против интернета

Лицензия

ПШазам

Лицензия

Оно 2

Лицензия

30
pack

Вам бонус

ВАЖНО

!!Акция!!

Alien_RageХит недели

RePack

Resident Evil 21

ИГРА 18+

pack

RePack

jed

!!Акция!!

Alien_Rage

RePack

fifa19

RePack

Assassins Creed: Odyssey

RePack

NEED FOR SPEED™ PAYBACK

3 сезон

9 сезон

Бесстыжие 9 сезон

Все сериалы

все сериалы на PB.wtf

RePack

FAR CRY 5
Ребята, катастрофически не хватает 1900р. для оплаты серверов за Октябрь (всвязи с блокировками трафик упал в 3 раза), 1-2р., выручайте.
  

Искусство обмана / Lying and Stealing (Мэтт Аселтон) [2019, Комедия, криминал, BDRip-AVC] DUB [iTunes] - OlLanDGroup pb.wtf

Искусство обмана через торрент pb.wtf

Раздают: 6 [ 92 KB/s ]
Размер: 744 MB | Добавлен: 1 мес. 6 д. назад | Торрент скачан:126 раз
Скачать  

31-10-2019 19:10 Искусство обмана Скачать торрент  

Искусство обмана / Lying and Stealing Год выпуска: 2019
Страна: США
Жанр: Комедия, криминал
Продолжительность: 01:40:14

Перевод: Дублированный | iTunes
Субтитры: Английские (Full)

Режиссер: Мэтт Аселтон


rating

В ролях: Тео Джеймс, Эмили Ратажковски, Арис Альварадо, Фернанда Андраде, Тим Бейдер, Джо Букаро III, Род Чауки, Рэй Рэй Чейз, Миа Чунг, Фрэнк Клем

Описание: Он — эксперт по искусству, вернее… его хищению. Она — модель с задатками актрисы и высоким IQ. Оба любят деньги и риск. Они просто созданы друг для друга… или это лишь фасад, чтобы провернуть изысканную и виртуозную аферу, больше похожую на арт-перформанс?

Качество: BDRip-AVC
Формат: MKV

Видео: 720x300 (2.40:1), 23.976 fps, x264 ~974 kbps avg, 0.188 bit/pixel
Аудио: 48 kHz, HE-AAC, 2 ch, ~64 kbps avg | RUS (iTunes)
General
Unique ID : 197017513129953047312507440574948344673 (0x9438315C088CBC01CC33117D10AA8361)
Complete name : D:\OlLanDGroup\iTunes\Lying.and.Stealing.2019.BDRip(AVC).745Mb.OlLanDGroup.mkv
Format : Matroska
Format version : Version 4
File size : 744 MiB
Duration : 1 h 40 min
Overall bit rate : 1 038 kb/s
Movie name : Lying.and.Stealing.2019.BDRip(AVC).745Mb.OlLanDGroup#Skandar#
Encoded date : UTC 2019-10-31 18:13:28
Writing application : mkvmerge v31.0.0 ('Dolores In A Shoestand') 64-bit
Writing library : libebml v1.3.6 + libmatroska v1.4.9

Video
ID : 1
Format : AVC
Format/Info : Advanced Video Codec
Format profile : High@L4.1
Format settings : CABAC / 10 Ref Frames
Format settings, CABAC : Yes
Format settings, ReFrames : 10 frames
Codec ID : V_MPEG4/ISO/AVC
Duration : 1 h 40 min
Bit rate : 974 kb/s
Width : 720 pixels
Height : 300 pixels
Display aspect ratio : 2.40:1
Frame rate mode : Constant
Frame rate : 23.976 (24000/1001) FPS
Color space : YUV
Chroma subsampling : 4:2:0
Bit depth : 8 bits
Scan type : Progressive
Bits/(Pixel*Frame) : 0.188
Stream size : 697 MiB (94%)
Title : Lying.and.Stealing.2019.BDRip(AVC).745Mb.OlLanDGroup#Skandar#
Writing library : x264 core 146 r2538 121396c
Encoding settings : cabac=1 / ref=10 / deblock=1:-3:-3 / analyse=0x3:0x133 / me=umh / subme=11 / psy=1 / psy_rd=0.97:0.05 / mixed_ref=1 / me_range=48 / chroma_me=1 / trellis=2 / 8x8dct=1 / cqm=0 / deadzone=21,11 / fast_pskip=0 / chroma_qp_offset=-3 / threads=6 / lookahead_threads=1 / sliced_threads=0 / nr=0 / decimate=0 / interlaced=0 / bluray_compat=0 / constrained_intra=0 / bframes=11 / b_pyramid=2 / b_adapt=2 / b_bias=0 / direct=3 / weightb=1 / open_gop=0 / weightp=2 / keyint=240 / keyint_min=23 / scenecut=40 / intra_refresh=0 / rc_lookahead=40 / rc=2pass / mbtree=0 / bitrate=974 / ratetol=1.0 / qcomp=0.60 / qpmin=0 / qpmax=69 / qpstep=4 / cplxblur=20.0 / qblur=0.5 / vbv_maxrate=50000 / vbv_bufsize=62500 / nal_hrd=none / filler=0 / ip_ratio=1.40 / pb_ratio=1.30 / aq=1:1.00
Language : Russian
Default : Yes
Forced : No

Audio
ID : 2
Format : AAC LC SBR
Format/Info : Advanced Audio Codec Low Complexity with Spectral Band Replication
Commercial name : HE-AAC
Format settings : Explicit
Codec ID : A_AAC-2
Duration : 1 h 40 min
Bit rate : 64.0 kb/s
Channel(s) : 2 channels
Channel layout : L R
Sampling rate : 48.0 kHz
Frame rate : 23.438 FPS (2048 SPF)
Compression mode : Lossy
Delay relative to video : 31 ms
Stream size : 45.9 MiB (6%)
Title : DUB (iTunes)
Language : Russian
Default : Yes
Forced : No

Text
ID : 3
Format : UTF-8
Codec ID : S_TEXT/UTF8
Codec ID/Info : UTF-8 Plain Text
Duration : 1 h 36 min
Bit rate : 62 b/s
Count of elements : 1639
Stream size : 44.4 KiB (0%)
Title : Full
Language : English
Default : No
Forced : No

Menu
00:00:00.000 : en:00:00:00.000
00:14:24.822 : en:00:14:24.822
00:25:44.001 : en:00:25:44.001
00:38:43.947 : en:00:38:43.947
00:50:55.886 : en:00:50:55.886
01:03:47.615 : en:01:03:47.615
01:20:59.146 : en:01:20:59.146
01:38:09.884 : en:01:38:09.884
Релиз от:
pb.wtf



Скачать Искусство обмана через торрент https://i90.fastpic.ru/big/2019/0724/c0/9d64c19d1d0a9a4b85f6f0595f724ac0.jpg Скачать фильм Искусство обмана через торрент бесплантно в хорошем качестве Описание: Он — эксперт по искусству, вернее… его хищению. Она — модель с задатками актрисы и высоким IQ. Оба любят деньги и риск. Они ... 5 10 1
Info! Золотая раздача, скачанное не засчитывается.
Торрент: Зарегистрирован [2019-10-31 19:10] · скачан: 126 раз
Статус: √ проверено
Размер: 744 MB
Как cкачать? Как скачать Искусство обмана через торрент | qTorrent

28-11-2019 20:33  

Отключить всю рекламу на сайте

    Дорогой пользователь! Огромная просьба, поблагодарите релизера, оцените раздачу и оставьте свои комментарий, если Вы скачали Искусство обмана через торрент бесплатно! Внесите свою лепту в развитие PiratBit!
    Комментировать посты могут только пользователи прошедшие не сложную регистрацию
    Показать сообщения:    

    Искусство обмана через торрент
    Скачать бесплатно Искусство обмана
    Искусство обмана скачать торрент
    Искусство обмана смотреть онлайн
    Cкачать фильм Искусство обмана бесплатно
    Искусство обмана скачать торрент в хорошем качестве
    Искусство обмана смотреть онлайн бесплатно в хорошем качестве


    Вы не можете начинать темы
    Вы не можете отвечать на сообщения
    Вы не можете редактировать свои сообщения
    Вы не можете удалять свои сообщения
    Вы не можете голосовать в опросах
    Вы не можете прикреплять файлы к сообщениям
    Вы можете скачивать файлы