Ссылка на приватное зеркало всего за 1$. Внимание количество ограничено!!!

iTunes

iTunes

iTunes

1

iTunes

iTunes

iTunes

iTunes

iTunes

30
pack

Новость дня

ВАЖНО

!!Акция!!

Alien_RageХит недели

RePack

Resident Evil 21

ИГРА 18+

pack

RePack

jed

!!Акция!!

Alien_Rage

RePack

fifa19

RePack

Assassins Creed: Odyssey

RePack

NEED FOR SPEED™ PAYBACK

4 сезон

9 сезон

Бесстыжие 9 сезон

Все сериалы

все сериалы на PB.wtf

RePack

FAR CRY 5
  

Новобранец / Новичок / The Rookie / Сезон: 2 / Серии: 1-15 из 20 (Роб Боумен, Майкл Гои, Лиза Демейн) [2019, Драма, комедия, криминал, WEB-DLRip] MVO [LostFilm] pb.wtf

Новобранец через торрент pb.wtf

Качают: 2 [ 0 KB/s ]
Размер: 8.95 GB | Добавлен: 12 д. назад | Торрент скачан:6 раз
Скачать  

31-10-2019 19:14 Новобранец Скачать торрент  

Новобранец | Новичок | The Rookie Год выпуска: 2019
Страна: США
Жанр: Драма, комедия, криминал
Продолжительность: ~ 00:42:00
Перевод: Профессиональный (многоголосый закадровый) | LostFilm

Режиссёр: Роб Боумен, Майкл Гои, Лиза Демейн, Барбара Браун

В ролях: Нэйтан Филлион, Шон Эшмор, Эрик Винтер, Мелисса О’Нил, Амос Блэкмон, Сара Шахи, Алисса Диас, Титус Макин мл., Ричард Т. Джонс, Эми Дэвидсон

Описание: Начинать с чистого листа всегда нелегко, особенно для уроженца маленького городка Джона Нолана, который после инцидента, перевернувшего его жизнь, решил воплотить в жизнь давнюю мечту и присоединиться к полиции Лос-Анджелеса. Возрастного новичка встречают с понятным скептицизмом, однако жизненный опыт, упорство и чувство юмора дают Джону преимущество.



Качество: WEB-DLRip
Формат: AVI

Видео: XviD, 720x400 (16:9), 23.976 кадров/сек, 1600 Кбит/сек
Аудио Rus: AC3, 48,0 kHz, 2 ch, 192 Кбит/сек | LostFilm
Аудио Eng: AC3, 48,0 kHz, 2 ch, 192 Кбит/сек

Субтитры: Русские (PhysKids), английские (SDH)
Реклама: Отсутствует
Работа со звуком, субтитрами: itunestv
01. Последствия / Impact
02. Ночной генерал / The Night General
03. Пари / The Bet
04. Воины и хранители / Warriors and Guardians
05. Жёстко, но с любовью / Tough Love
Общее
Полное имя : E:\The Rookie (Season 2) LostFilm WEB-DLRip\The.Rookie.S02E01.WEB-DLRip.RGzsRutracker.[Wentworth_Miller].avi
Формат : AVI
Формат/Информация : Audio Video Interleave
Размер файла : 610 Мбайт
Продолжительность : 42 м. 41 с.
Общий поток : 1998 Кбит/сек
Название фильма : The Rookie 02x01 (Последствия / Impact) - Release by Wentworth_Miller
Программа кодирования : VirtualDubMod 1.5.10.3 | www.virtualdub-fr.org || (build 2550/release)

Видео
Идентификатор : 0
Формат : MPEG-4 Visual
Профиль формата : Advanced Simple@L5
Настройки формата : BVOP1
Параметр BVOP формата : 1
Параметр QPel формата : Нет
Параметр GMC формата : Без точки перехода
Параметр матрицы формата : Default (MPEG)
Идентификатор кодека : XVID
Идентификатор кодека/Подсказка : XviD
Продолжительность : 42 м. 41 с.
Битрейт : 1600 Кбит/сек
Ширина : 720 пикселей
Высота : 400 пикселей
Соотношение сторон : 16:9
Частота кадров : 23,976 (24000/1001) кадра/сек
Цветовое пространство : YUV
Субдискретизация насыщенности : 4:2:0
Битовая глубина : 8 бит
Тип развёртки : Прогрессивная
Метод сжатия : С потерями
Бит/(Пиксели*Кадры) : 0.232
Размер потока : 488 Мбайт (80%)
Библиотека кодирования : XviD 67

Аудио #1
Идентификатор : 1
Формат : AC-3
Формат/Информация : Audio Coding 3
Коммерческое название : Dolby Digital
Идентификатор кодека : 2000
Продолжительность : 42 м. 41 с.
Вид битрейта : Постоянный
Битрейт : 192 Кбит/сек
Каналы : 2 канала
ChannelLayout : L R
Частота : 48,0 КГц
Частота кадров : 31,250 кадров/сек (1536 SPF)
Метод сжатия : С потерями
Размер потока : 58,6 Мбайт (10%)
Выравнивание : Разделение по промежуткам
Продолжительность промежутка : 42 мс. (1,00 видеокадр)
Время предзагрузки промежутка : 500 мс.
ServiceKind/String : Complete Main

Аудио #2
Идентификатор : 2
Формат : AC-3
Формат/Информация : Audio Coding 3
Коммерческое название : Dolby Digital
Идентификатор кодека : 2000
Продолжительность : 42 м. 41 с.
Вид битрейта : Постоянный
Битрейт : 192 Кбит/сек
Каналы : 2 канала
ChannelLayout : L R
Частота : 48,0 КГц
Частота кадров : 31,250 кадров/сек (1536 SPF)
Метод сжатия : С потерями
Размер потока : 58,6 Мбайт (10%)
Выравнивание : Разделение по промежуткам
Продолжительность промежутка : 42 мс. (1,00 видеокадр)
Время предзагрузки промежутка : 500 мс.
ServiceKind/String : Complete Main
Внимание! Раздача ведётся путём добавления новых серий; при каждом добавлении создаётся новый торрент. Чтобы начать докачку новой серии, пользователям необходимо сделать следующее:
(1) остановить скачивание,
(2) удалить старый торрент у себя из клиента (старые серии удалять не надо),
(3) скачать новый торрент и запустить его у себя в клиенте вместо старого, при этом указать клиенту путь в старую папку куда и должно происходить скачивание новых серий.

Ваш клиент при этом должен произвести хеширование (проверку) старой папки (если не производит сам - помогите ему сделать это), и будет докачивать только те серии которых у вас ещё нет. Старые серии при этом не удаляются, а продолжают раздаваться!

Eсли вы уже удалили старые серии, то предотвратить повторную закачку старых серий можно, отжав галочку в соответствующих местах при запуске нового торрента. По возможности, желательно не удалять старые серии как можно дольше чтобы релизёр не столько продолжал раздавать старые серии, а смог сконцентрироваться на новых.
pb.wtf



Скачать Новобранец через торрент https://img16.lostpic.net/2019/10/02/c7b4bd6a1833b87fecadb23be8298b4c.jpg Скачать фильм Новобранец через торрент бесплантно в хорошем качестве Описание: Начинать с чистого листа всегда нелегко, особенно для уроженца маленького городка Джона Нолана, который после инцидента, ... 10 10 3
Торрент: Зарегистрирован [2020-03-27 01:26] · скачан: 6 раз
Статус: √ проверено
Размер: 8.95 GB
Как cкачать? Как скачать Новобранец через торрент | qTorrent

28-11-2019 20:33  

Отключить всю рекламу на сайте

    Дорогой пользователь! Огромная просьба, поблагодарите релизера, оцените раздачу и оставьте свои комментарий, если Вы скачали Новобранец через торрент бесплатно! Внесите свою лепту в развитие PiratBit!
    Комментировать посты могут только пользователи прошедшие не сложную регистрацию
    Показать сообщения:    

    Новобранец через торрент
    Скачать бесплатно Новобранец
    Новобранец скачать торрент
    Новобранец смотреть онлайн
    Cкачать фильм Новобранец бесплатно
    Новобранец скачать торрент в хорошем качестве
    Новобранец смотреть онлайн бесплатно в хорошем качестве


    Вы не можете начинать темы
    Вы не можете отвечать на сообщения
    Вы не можете редактировать свои сообщения
    Вы не можете удалять свои сообщения
    Вы не можете голосовать в опросах
    Вы не можете прикреплять файлы к сообщениям
    Вы можете скачивать файлы