Всегда рабочее зеркало без VPN и Proxy просто перед .vidak.icu напиши любое слово или цифру, Пример http://gxb6.vidak.icu

MVO

Лицензия

1 сезон

1

1 сезон

iTunes

1 сезон

13

1 сезон

Deluxe

pack

Рекомендуем

Repack

30

ВАЖНО

RePack

MK11

RePack

jed

RePack

fifa19

RePack

RDR2

RePack

NEED FOR SPEED™ PAYBACK

Кинопоиск HD

6 сезон

 Острые козырьки 6 сезон

Все сериалы

все сериалы на PB.wtf

RePack

FAR CRY 5
  
Magnet ссылка

Операция «Колибри» / The Hummingbird Project (Ким Нгуйен) [2018, Триллер, BDRip 720p] DUB [iTunes] +2xMVO pb.wtf

Операция «Колибри» через торрент pb.wtf

Размер: 7.1 GB | Добавлен: 2 года 8 мес. назад | Торрент скачан:203 раза
Смотреть онлайн Операция «Колибри» | Скачать    Ребята, помогите собрать деньги на оплату серверов!!!

31-10-2019 19:34 Операция «Колибри» Скачать торрент  

Операция «Колибри» / The Hummingbird Project
Год выпуска: 2018
Страна: Бельгия, Канада
Жанр: Триллер
Продолжительность: 01:50:37
Перевод:

#1: Дублированный | iTunes
#2: Профессиональный многоголосый | СВ Студия
#3: Профессиональный многоголосый | HDRezka Studio

Субтитры: Русские (Full), английские

Режиссер: Ким Нгуйен

rating

В ролях:

Джесси Айзенберг (Vincent Zaleski), Александр Скарсгард (Anton Zaleski), Сальма Хайек (Eva Torres), Майкл Мэндо (Mark Vega), Йохан Хелденберг (Amish Elder), Аиша Исса (Ophelia Troller), Марк Слэк (Tasso Casilieris), Сара Голдберг (Mascha), Фрэнк Скорпион (Bryan Taylor), Кваси Сонгуи (Ray Engineer), Конрад Пла (Agent Santana), Джулиан Бэйли (Elliot)
Описание: Двоюродные братья Винсент и Антон живут в мире высокочастотного трейдинга, где каждая миллисекунда может стоить миллиарды. Они решаются реализовать давно задуманный проект. Казалось бы, все продумано до мелочей и шансы на успех велики как никогда. Однако на пути братьев встает их бывший босс Эва Торрес - беспринципный злой гений, ставшая их заклятым врагом. Ставки высоки, проигравший теряет всё или, наоборот, приобретает нечто большее, поистине бесценное.

Качество: BDRip 720p
Формат: MKV

Видео: MPEG-4 AVC, 1280x544, 7589 Kbit/s, 23.976 fps
Аудио #01: 48 kHz, AC3, 5.1, 384 Kbps | iTunes | RUS |
Аудио #02: 48 kHz, AC3, 5.1, 384 Kbps | СВ Студия | RUS |
Аудио #03: 48 kHz, AC3, 2.0, 192 Kbps | HDRezka Studio | RUS |
Аудио #04: 48 kHz, AC3, 5.1, 640 Kbps | Оригинал | ENG |
скриншот  скриншот  скриншот  скриншот  скриншот  

General
Unique ID : 109386205789981952925941146210347226521 (0x524B04551740D078AB75083FE1C79599)
Complete name : D:Video111The.Hummingbird.Project.2018.BDRip.720p.seleZen.mkv
Format : Matroska
Format version : Version 4
File size : 7.10 GiB
Duration : 1 h 50 min
Overall bit rate : 9 192 kb/s
Movie name : The Hummingbird Project 2018 from селезень
Encoded date : UTC 2019-10-31 19:23:12
Writing application : mkvmerge v22.0.0 ('At The End Of The World') 64-bit
Writing library : libebml v1.3.5 + libmatroska v1.4.8

Video
ID : 1
Format : AVC
Format/Info : Advanced Video Codec
Format profile : [email protected]
Format settings : CABAC / 12 Ref Frames
Format settings, CABAC : Yes
Format settings, Reference : 12 frames
Codec ID : V_MPEG4/ISO/AVC
Duration : 1 h 50 min
Bit rate : 7 589 kb/s
Width : 1 280 pixels
Height : 544 pixels
Display aspect ratio : 2.35:1
Frame rate mode : Constant
Frame rate : 23.976 (24000/1001) FPS
Color space : YUV
Chroma subsampling : 4:2:0
Bit depth : 8 bits
Scan type : Progressive
Bits/(Pixel*Frame) : 0.455
Stream size : 5.86 GiB (83%)
Title : playHD
Writing library : x264 core 146 r2538 121396c
Encoding settings : cabac=1 / ref=12 / deblock=1:-3:-3 / analyse=0x3:0x133 / me=umh / subme=10 / psy=1 / psy_rd=1.00:0.00 / mixed_ref=1 / me_range=32 / chroma_me=1 / trellis=2 / 8x8dct=1 / cqm=0 / deadzone=21,11 / fast_pskip=0 / chroma_qp_offset=-2 / threads=6 / lookahead_threads=1 / sliced_threads=0 / nr=0 / decimate=0 / interlaced=0 / bluray_compat=0 / constrained_intra=0 / bframes=9 / b_pyramid=2 / b_adapt=2 / b_bias=0 / direct=3 / weightb=1 / open_gop=0 / weightp=2 / keyint=250 / keyint_min=23 / scenecut=40 / intra_refresh=0 / rc=crf / mbtree=0 / crf=13.5 / qcomp=0.60 / qpmin=0 / qpmax=69 / qpstep=4 / ip_ratio=1.40 / pb_ratio=1.30 / aq=3:0.80
Language : English
Default : Yes
Forced : No

Audio #1
ID : 2
Format : AC-3
Format/Info : Audio Coding 3
Commercial name : Dolby Digital
Codec ID : A_AC3
Duration : 1 h 50 min
Bit rate mode : Constant
Bit rate : 384 kb/s
Channel(s) : 6 channels
Channel layout : L R C LFE Ls Rs
Sampling rate : 48.0 kHz
Frame rate : 31.250 FPS (1536 SPF)
Bit depth : 16 bits
Compression mode : Lossy
Stream size : 304 MiB (4%)
Title : iTunes
Language : Russian
Service kind : Complete Main
Default : Yes
Forced : Yes

Audio #2
ID : 3
Format : AC-3
Format/Info : Audio Coding 3
Commercial name : Dolby Digital
Codec ID : A_AC3
Duration : 1 h 50 min
Bit rate mode : Constant
Bit rate : 384 kb/s
Channel(s) : 6 channels
Channel layout : L R C LFE Ls Rs
Sampling rate : 48.0 kHz
Frame rate : 31.250 FPS (1536 SPF)
Bit depth : 16 bits
Compression mode : Lossy
Stream size : 304 MiB (4%)
Title : MVO [СВ Студия]
Language : Russian
Service kind : Complete Main
Default : No
Forced : No

Audio #3
ID : 4
Format : AC-3
Format/Info : Audio Coding 3
Commercial name : Dolby Digital
Codec ID : A_AC3
Duration : 1 h 50 min
Bit rate mode : Constant
Bit rate : 192 kb/s
Channel(s) : 2 channels
Channel layout : L R
Sampling rate : 48.0 kHz
Frame rate : 31.250 FPS (1536 SPF)
Bit depth : 16 bits
Compression mode : Lossy
Stream size : 152 MiB (2%)
Title : MVO [HDRezka Studio]
Language : Russian
Service kind : Complete Main
Default : No
Forced : No

Audio #4
ID : 5
Format : AC-3
Format/Info : Audio Coding 3
Commercial name : Dolby Digital
Codec ID : A_AC3
Duration : 1 h 50 min
Bit rate mode : Constant
Bit rate : 640 kb/s
Channel(s) : 6 channels
Channel layout : L R C LFE Ls Rs
Sampling rate : 48.0 kHz
Frame rate : 31.250 FPS (1536 SPF)
Bit depth : 16 bits
Compression mode : Lossy
Stream size : 506 MiB (7%)
Title : Original
Language : English
Service kind : Complete Main
Default : No
Forced : No

Text #1
ID : 6
Format : UTF-8
Codec ID : S_TEXT/UTF8
Codec ID/Info : UTF-8 Plain Text
Duration : 1 h 42 min
Bit rate : 132 b/s
Count of elements : 1927
Stream size : 99.5 KiB (0%)
Title : Full
Language : Russian
Default : No
Forced : No

Text #2
ID : 7
Format : UTF-8
Codec ID : S_TEXT/UTF8
Codec ID/Info : UTF-8 Plain Text
Duration : 1 h 45 min
Bit rate : 83 b/s
Count of elements : 2019
Stream size : 64.0 KiB (0%)
Title : Full
Language : English
Default : No
Forced : No

Menu
00:00:00.000 : en:Chapter 01
00:09:59.265 : en:Chapter 02
00:20:45.703 : en:Chapter 03
00:30:31.329 : en:Chapter 04
00:40:32.555 : en:Chapter 05
00:50:20.684 : en:Chapter 06
01:00:52.357 : en:Chapter 07
01:10:05.326 : en:Chapter 08
01:19:56.333 : en:Chapter 09
01:29:57.892 : en:Chapter 10
01:39:37.555 : en:Chapter 11

pb.wtf



Скачать Операция «Колибри» через торрент https://img15.lostpic.net/2019/10/31/16d01dca729fb55ecf6bb6d4005837a4.jpg Скачать, смотреть онлайн Операция «Колибри» бесплантно в хорошем качестве Описание: Двоюродные братья Винсент и Антон живут в мире высокочастотного трейдинга, где каждая миллисекунда может стоить миллиарды. Они ... 10 10 6
Торрент: Зарегистрирован [2019-10-31 19:34] · скачан: 203 раз
Статус: √ проверено
Размер: 7.1 GB
Как cкачать? Как скачать Операция «Колибри» через торрент | UTorrent

% Раздел Тема Автор DL S | L
Фильмы 2018 [DVDrip, WEB-DLRip, HDrip] (DUB, MVO) [ 2.5 GB ] Операция «Колибри» / The Hummingbird Project [2018 BDRip-AVC] +2xMVO bober100 Скачать
1 | 0
Фильмы (Blu-ray, BD-Remux, HDDVD) [ 19.12 GB ] Операция «Колибри» / The Hummingbird Project [2018 BD Remux 1080p] +2xMVO bober100 Скачать
1 | 0
Фильмы [HD 720p, 1080p] (Хороший звук DUB, MVO) [ 10.13 GB ] Операция «Колибри» / The Hummingbird Project [2018 BDRip 1080p] +2xMVO bober100 Скачать
1 | 0

28-11-2019 20:33  

Отключить всю рекламу на сайте

    Дорогой пользователь! Огромная просьба, поблагодарите релизера, оцените раздачу и оставьте свои комментарий, если Вы скачали Операция «Колибри» через торрент бесплатно!
    Комментировать посты могут только пользователи прошедшие не сложную регистрацию
    Показать сообщения:    

    Операция «Колибри» через торрент
    Скачать бесплатно Операция «Колибри»
    Операция «Колибри» скачать торрент
    Операция «Колибри» смотреть онлайн
    Cкачать фильм Операция «Колибри» бесплатно
    Операция «Колибри» скачать торрент в хорошем качестве
    Операция «Колибри» смотреть онлайн бесплатно в хорошем качестве


    Вы не можете начинать темы
    Вы не можете отвечать на сообщения
    Вы не можете редактировать свои сообщения
    Вы не можете удалять свои сообщения
    Вы не можете голосовать в опросах
    Вы не можете прикреплять файлы к сообщениям
    Вы можете скачивать файлы