Ссылка на приватное зеркало нашего сайта всего за 1$. Внимание количество ограничено!!!

2 сезон

iTunes

1 сезон

1

2 сезон

2 сезон

iTunes

1 сезон

RePack

30

Ultimate

ВАЖНО

ИГРА 18+

pack

RePack

MK11
pack

Забери бонус

RePack

jed

!!Акция!!

Alien_Rage

RePack

fifa19

RePack

Assassins Creed: Odyssey

RePack

NEED FOR SPEED™ PAYBACK

4 сезон

9 сезон

Бесстыжие 9 сезон

Все сериалы

все сериалы на PB.wtf

RePack

FAR CRY 5
  

Невероятный мир глазами Энцо / The Art of Racing in the Rain (Саймон Кёртис) [2019, Драма, комедия, мелодрама, спорт, BD Remux 1080p] DUB (rus, ukr) [iTunes] pb.wtf

Невероятный мир глазами Энцо через торрент pb.wtf

Размер: 26.77 GB | Добавлен: 1 год назад | Торрент скачан:61 раз
Скачать  

31-10-2019 21:37 Невероятный мир глазами Энцо Скачать торрент  

Невероятный мир глазами Энцо / The Art of Racing in the Rain
Год выпуска: 2019
Страна: США
Студия: Fox 2000 Pictures, Original Film, Shifting Gears Productions
Жанр: Драма, комедия, мелодрама, спорт
Продолжительность: 01:48:49
Перевод: Дублированный | iTunes
Субтитры: Русские (Forced, full), украинские (Forced, full), английские

Режиссер: Саймон Кёртис

rating

В ролях: Кевин Костнер, Майло Вентимилья, Аманда Сайфред, Мартин Донован, Гэри Коул, Кэти Бэйкер, Ал Сапиенца, Лили Додсворт-Эванс, Райан Кира Армстронг, Андрес Джозеф, Карен Холнесс

Описание: Для собаки по кличке Энцо жизнь - это гонка. Не важно, как ты ее проходишь - за рулем автомобиля или на четырех лапах, все равно тебя ждут крутые виражи, ямы-западни, опасные взлеты и падения. Они выбивают с трека даже самых сильных - это начинающий гонщик Дэнни и его пес Энцо знают наверняка. Каждому из них предстоит своя гонка, но оба понимают: победить не значит обогнать соперников. Победить - значит вернуться после поражения на трассу и пройти ее до самого финиша, какой бы скользкой ни была дорога.

Качество: BD Remux 1080p
Формат: MKV

Видео: MPEG-4 AVC, 1920x1080, 29.8 Мbit/s, 23.976 fps
Аудио#1: 48 kHz, AC3, 5.1, 384 Kbps | iTunes | RUS |
Аудио#2: 48 kHz, AC3, 2.0, 160 Kbps | iTunes | UKR |
Аудио#3: 48 kHz, DTS-HD MA, 7.1, 4906 Kbps | Оригинал | ENG |
скриншот  скриншот  скриншот  скриншот  скриншот  

General
Unique ID : 163374658758275872500261837054528587661 (0x7AE8D0932BF08102942D9FCA9386078D)
Complete name : D:Video111The.Art.of.Racing.in.the.Rain.2019.BDREMUX.1080p.seleZen.mkv
Format : Matroska
Format version : Version 4
File size : 26.8 GiB
Duration : 1 h 48 min
Overall bit rate mode : Variable
Overall bit rate : 35.2 Mb/s
Movie name : The Art of Racing in the Rain 2019 from селезень
Encoded date : UTC 2019-10-31 21:19:18
Writing application : mkvmerge v22.0.0 ('At The End Of The World') 64-bit
Writing library : libebml v1.3.5 + libmatroska v1.4.8

Video
ID : 1
Format : AVC
Format/Info : Advanced Video Codec
Format profile : High@L4.1
Format settings : CABAC / 4 Ref Frames
Format settings, CABAC : Yes
Format settings, Reference : 4 frames
Codec ID : V_MPEG4/ISO/AVC
Duration : 1 h 48 min
Bit rate mode : Variable
Bit rate : 29.8 Mb/s
Maximum bit rate : 31.0 Mb/s
Width : 1 920 pixels
Height : 1 080 pixels
Display aspect ratio : 16:9
Frame rate mode : Constant
Frame rate : 23.976 (24000/1001) FPS
Color space : YUV
Chroma subsampling : 4:2:0
Bit depth : 8 bits
Scan type : Progressive
Bits/(Pixel*Frame) : 0.599
Stream size : 22.6 GiB (85%)
Language : English
Default : Yes
Forced : No

Audio #1
ID : 2
Format : AC-3
Format/Info : Audio Coding 3
Commercial name : Dolby Digital
Codec ID : A_AC3
Duration : 1 h 48 min
Bit rate mode : Constant
Bit rate : 384 kb/s
Channel(s) : 6 channels
Channel layout : L R C LFE Ls Rs
Sampling rate : 48.0 kHz
Frame rate : 31.250 FPS (1536 SPF)
Bit depth : 16 bits
Compression mode : Lossy
Stream size : 299 MiB (1%)
Title : iTunes
Language : Russian
Service kind : Complete Main
Default : Yes
Forced : Yes

Audio #2
ID : 3
Format : AC-3
Format/Info : Audio Coding 3
Commercial name : Dolby Digital
Codec ID : A_AC3
Duration : 1 h 48 min
Bit rate mode : Constant
Bit rate : 160 kb/s
Channel(s) : 2 channels
Channel layout : L R
Sampling rate : 48.0 kHz
Frame rate : 31.250 FPS (1536 SPF)
Bit depth : 16 bits
Compression mode : Lossy
Stream size : 125 MiB (0%)
Title : iTunes
Language : Ukrainian
Service kind : Complete Main
Default : No
Forced : No

Audio #3
ID : 4
Format : DTS XLL
Format/Info : Digital Theater Systems
Commercial name : DTS-HD Master Audio
Codec ID : A_DTS
Duration : 1 h 48 min
Bit rate mode : Variable
Bit rate : 4 906 kb/s
Channel(s) : 8 channels
Channel layout : C L R LFE Lb Rb Lss Rss
Sampling rate : 48.0 kHz
Frame rate : 93.750 FPS (512 SPF)
Bit depth : 24 bits
Compression mode : Lossless
Stream size : 3.73 GiB (14%)
Title : Original
Language : English
Default : No
Forced : No

Text #1
ID : 5
Format : UTF-8
Codec ID : S_TEXT/UTF8
Codec ID/Info : UTF-8 Plain Text
Duration : 1 h 44 min
Bit rate : 0 b/s
Count of elements : 6
Stream size : 289 Bytes (0%)
Title : Forced
Language : Russian
Default : Yes
Forced : Yes

Text #2
ID : 6
Format : UTF-8
Codec ID : S_TEXT/UTF8
Codec ID/Info : UTF-8 Plain Text
Duration : 1 h 48 min
Bit rate : 96 b/s
Count of elements : 1402
Stream size : 76.5 KiB (0%)
Title : Full
Language : Russian
Default : No
Forced : No

Text #3
ID : 7
Format : UTF-8
Codec ID : S_TEXT/UTF8
Codec ID/Info : UTF-8 Plain Text
Duration : 1 h 28 min
Bit rate : 0 b/s
Count of elements : 4
Stream size : 177 Bytes (0%)
Title : Forced
Language : Ukrainian
Default : No
Forced : No

Text #4
ID : 8
Format : UTF-8
Codec ID : S_TEXT/UTF8
Codec ID/Info : UTF-8 Plain Text
Duration : 1 h 48 min
Bit rate : 98 b/s
Count of elements : 1402
Stream size : 78.3 KiB (0%)
Title : Full
Language : Ukrainian
Default : No
Forced : No

Text #5
ID : 9
Format : UTF-8
Codec ID : S_TEXT/UTF8
Codec ID/Info : UTF-8 Plain Text
Duration : 1 h 48 min
Bit rate : 64 b/s
Count of elements : 1682
Stream size : 51.3 KiB (0%)
Title : Full
Language : English
Default : No
Forced : No

Text #6
ID : 10
Format : UTF-8
Codec ID : S_TEXT/UTF8
Codec ID/Info : UTF-8 Plain Text
Duration : 1 h 48 min
Bit rate : 71 b/s
Count of elements : 1921
Stream size : 56.8 KiB (0%)
Title : SDH
Language : English
Default : No
Forced : No

Menu
00:00:00.000 : en:Chapter 01
00:04:51.583 : en:Chapter 02
00:10:34.884 : en:Chapter 03
00:13:59.589 : en:Chapter 04
00:17:26.712 : en:Chapter 05
00:20:54.920 : en:Chapter 06
00:26:08.734 : en:Chapter 07
00:31:05.530 : en:Chapter 08
00:36:22.680 : en:Chapter 09
00:39:37.417 : en:Chapter 10
00:43:47.291 : en:Chapter 11
00:48:57.143 : en:Chapter 12
00:54:02.739 : en:Chapter 13
00:59:17.429 : en:Chapter 14
01:03:59.127 : en:Chapter 15
01:07:27.502 : en:Chapter 16
01:10:49.078 : en:Chapter 17
01:14:47.858 : en:Chapter 18
01:18:46.513 : en:Chapter 19
01:25:06.852 : en:Chapter 20
01:28:34.601 : en:Chapter 21
01:32:43.767 : en:Chapter 22
01:36:29.951 : en:Chapter 23
01:41:27.540 : en:Chapter 24

pb.wtf



Скачать Невероятный мир глазами Энцо через торрент https://a.radikal.ru/a37/1910/2d/754d99fa4de8.jpg Скачать фильм Невероятный мир глазами Энцо через торрент бесплантно в хорошем качестве Описание: Для собаки по кличке Энцо жизнь - это гонка. Не важно, как ты ее проходишь - за рулем автомобиля или на четырех лапах, все равно ... 9.5 10 6
Торрент: Зарегистрирован [2019-10-31 21:37] · скачан: 61 раз
Статус: √ проверено
Размер: 26.77 GB
Как cкачать? Как скачать Невероятный мир глазами Энцо через торрент | qTorrent

% Раздел Тема Автор DL S | L
Фильмы 2019-2020 [DVDrip, WEB-DLRip, HDrip] (DUB, MVO) [ 1.41 GB ] Невероятный мир глазами Энцо / The Art of Racing in the Rain [2019 BDRip] bober100 Скачать
10 | 0
Фильмы 2019-2020 [DVDrip, WEB-DLRip, HDrip] (DUB, MVO) [ 706 MB ] Невероятный мир глазами Энцо / The Art of Racing in the Rain [2019 HDRip ""] coc900 Скачать
1 | 0
Фильмы 2019-2020 [DVDrip, WEB-DLRip, HDrip] (DUB, MVO) [ 745 MB ] Невероятный мир глазами Энцо / The Art of Racing in the Rain [2019 BDRip-AVC] - OllanDGroup Skandar2019 Скачать
1 | 0
Фильмы [HD 720p, 1080p] (Хороший звук DUB, MVO) [ 13.2 GB ] Невероятный мир глазами Энцо / The Art of Racing in the Rain [2019 BDRip 1080p] DUB bober100 Скачать
1 | 0
Фильмы [HD 720p, 1080p] (Хороший звук DUB, MVO) [ 6.11 GB ] Невероятный мир глазами Энцо / The Art of Racing in the Rain [2019 BDRip 720p] DUB bober100 Скачать
2 | 0

28-11-2019 20:33  

Отключить всю рекламу на сайте

    Дорогой пользователь! Огромная просьба, поблагодарите релизера, оцените раздачу и оставьте свои комментарий, если Вы скачали Невероятный мир глазами Энцо через торрент бесплатно! Внесите свою лепту в развитие PiratBit!
    Комментировать посты могут только пользователи прошедшие не сложную регистрацию
    Показать сообщения:    

    Невероятный мир глазами Энцо через торрент
    Скачать бесплатно Невероятный мир глазами Энцо
    Невероятный мир глазами Энцо скачать торрент
    Невероятный мир глазами Энцо смотреть онлайн
    Cкачать фильм Невероятный мир глазами Энцо бесплатно
    Невероятный мир глазами Энцо скачать торрент в хорошем качестве
    Невероятный мир глазами Энцо смотреть онлайн бесплатно в хорошем качестве


    Вы не можете начинать темы
    Вы не можете отвечать на сообщения
    Вы не можете редактировать свои сообщения
    Вы не можете удалять свои сообщения
    Вы не можете голосовать в опросах
    Вы не можете прикреплять файлы к сообщениям
    Вы можете скачивать файлы