новый адрес
Ссылка на приватное зеркало всего за 1$. Внимание количество ограничено!!!

iTunes

1+1

iTunes

мы

iTunes

1

iTunes

Чернобыль

iTunes

Ральф против интернета

Лицензия

ПШазам

Лицензия

Оно 2

Лицензия

30
pack

Вам бонус

ВАЖНО

!!Акция!!

Alien_RageХит недели

RePack

Resident Evil 21

ИГРА 18+

pack

RePack

jed

!!Акция!!

Alien_Rage

RePack

fifa19

RePack

Assassins Creed: Odyssey

RePack

NEED FOR SPEED™ PAYBACK

3 сезон

9 сезон

Бесстыжие 9 сезон

Все сериалы

все сериалы на PB.wtf

RePack

FAR CRY 5
Ребята, катастрофически не хватает 1900р. для оплаты серверов за Октябрь (всвязи с блокировками трафик упал в 3 раза), 1-2р., выручайте.
  

Как отмыть миллион / Падение американской империи / La chute de l'empire américain (Дени Аркан) [2018, Комедия, криминал, BDRip-AVC] MVO [iTunes] - OlLanDGroup pb.wtf

Как отмыть миллион через торрент pb.wtf

Раздают: 1 [ 0 KB/s ]
Размер: 742 MB | Добавлен: 1 мес. 4 д. назад | Торрент скачан:75 раз
Скачать  

01-11-2019 05:29 Как отмыть миллион Скачать торрент  

Как отмыть миллион / Падение американской империи / La chute de l'empire américain Год выпуска: 2018
Страна: Канада
Жанр: Комедия, криминал
Продолжительность: 02:07:41

Перевод: Профессиональный (многоголосый, закадровый) | iTunes
Субтитры: отсутствуют

Режиссер: Дени Аркан


rating

В ролях: Александр Ландри, Мари-Пьер Морен, Реми Жирар, Максим Рой, Эрик Брюно, Венсан Леклер, Жюльетт Госслен, Пьер Курци, Ян Инглэнд, Роз-Мари Перро

Описание: Скромняга Пьер-Поль, обладатель ученой степени, вынужден подрабатывать курьером. В один прекрасный день, доставляя очередную посылку, он первым оказывается на месте преступления и становится обладателем миллионного куша. Искушение решить все житейские проблемы велико. И пока он размышляет вернуть или присвоить огромную сумму наличных, его начинают преследовать бандиты, а полиция не спускает с него глаз. Спасаясь и от тех, и от других, интеллектуал Пьер-Поль встречает роковую красотку...

Качество: BDRip-AVC
Формат: MKV

Видео: 720x302 (2.40:1), 23.976 fps, x264 ~751 kbps avg, 0.144 bit/pixel
Аудио: 48 kHz, HE-AAC, 2 ch, ~64 kbps avg | RUS (iTunes)
General
Unique ID : 204420811610972298965275782108333611812 (0x99CA0427E527236886963B89C8D61B24)
Complete name : D:\OlLanDGroup\iTunes\La.Chute.De.L.Empire.Americain.2018.BDRip(AVC).745Mb.OlLanDGroup.mkv
Format : Matroska
Format version : Version 4
File size : 742 MiB
Duration : 2 h 7 min
Overall bit rate : 813 kb/s
Movie name : La.Chute.De.L.Empire.Americain.2018.BDRip(AVC).745Mb.OlLanDGroup#Skandar#
Encoded date : UTC 2019-11-01 01:16:38
Writing application : mkvmerge v31.0.0 ('Dolores In A Shoestand') 64-bit
Writing library : libebml v1.3.6 + libmatroska v1.4.9

Video
ID : 1
Format : AVC
Format/Info : Advanced Video Codec
Format profile : High@L4.1
Format settings : CABAC / 10 Ref Frames
Format settings, CABAC : Yes
Format settings, ReFrames : 10 frames
Codec ID : V_MPEG4/ISO/AVC
Duration : 2 h 7 min
Bit rate : 751 kb/s
Width : 720 pixels
Height : 302 pixels
Display aspect ratio : 2.40:1
Frame rate mode : Constant
Frame rate : 23.976 (24000/1001) FPS
Color space : YUV
Chroma subsampling : 4:2:0
Bit depth : 8 bits
Scan type : Progressive
Bits/(Pixel*Frame) : 0.144
Stream size : 682 MiB (92%)
Title : La.Chute.De.L.Empire.Americain.2018.BDRip(AVC).745Mb.OlLanDGroup#Skandar#
Writing library : x264 core 146 r2538 121396c
Encoding settings : cabac=1 / ref=10 / deblock=1:-3:-3 / analyse=0x3:0x133 / me=umh / subme=11 / psy=1 / psy_rd=0.97:0.05 / mixed_ref=1 / me_range=48 / chroma_me=1 / trellis=2 / 8x8dct=1 / cqm=0 / deadzone=21,11 / fast_pskip=0 / chroma_qp_offset=-3 / threads=6 / lookahead_threads=1 / sliced_threads=0 / nr=0 / decimate=0 / interlaced=0 / bluray_compat=0 / constrained_intra=0 / bframes=11 / b_pyramid=2 / b_adapt=2 / b_bias=0 / direct=3 / weightb=1 / open_gop=0 / weightp=2 / keyint=240 / keyint_min=23 / scenecut=40 / intra_refresh=0 / rc_lookahead=40 / rc=2pass / mbtree=0 / bitrate=751 / ratetol=1.0 / qcomp=0.60 / qpmin=0 / qpmax=69 / qpstep=4 / cplxblur=20.0 / qblur=0.5 / vbv_maxrate=50000 / vbv_bufsize=62500 / nal_hrd=none / filler=0 / ip_ratio=1.40 / pb_ratio=1.30 / aq=1:1.00
Language : Russian
Default : Yes
Forced : No

Audio
ID : 2
Format : AAC LC SBR
Format/Info : Advanced Audio Codec Low Complexity with Spectral Band Replication
Commercial name : HE-AAC
Format settings : Explicit
Codec ID : A_AAC-2
Duration : 2 h 7 min
Bit rate : 64.0 kb/s
Channel(s) : 2 channels
Channel layout : L R
Sampling rate : 48.0 kHz
Frame rate : 23.438 FPS (2048 SPF)
Compression mode : Lossy
Delay relative to video : 31 ms
Stream size : 58.4 MiB (8%)
Title : MVO (iTunes)
Language : Russian
Default : Yes
Forced : No

Menu
00:00:00.000 : fr:00:00:00.000
00:05:55.355 : fr:00:05:55.355
00:13:12.458 : fr:00:13:12.458
00:19:00.056 : fr:00:19:00.056
00:23:17.479 : fr:00:23:17.479
00:28:31.418 : fr:00:28:31.418
00:37:02.220 : fr:00:37:02.220
00:47:08.367 : fr:00:47:08.367
00:52:44.078 : fr:00:52:44.078
00:59:20.390 : fr:00:59:20.390
01:05:57.954 : fr:01:05:57.954
01:13:09.885 : fr:01:13:09.885
01:21:15.370 : fr:01:21:15.370
01:29:58.059 : fr:01:29:58.059
01:34:21.906 : fr:01:34:21.906
01:39:28.379 : fr:01:39:28.379
01:44:17.334 : fr:01:44:17.334
01:50:55.440 : fr:01:50:55.440
01:56:52.505 : fr:01:56:52.505
02:01:48.593 : fr:02:01:48.593
Релиз от:
pb.wtf



Скачать Как отмыть миллион через торрент https://c.radikal.ru/c32/1909/31/f848bccf16c0.png Скачать фильм Как отмыть миллион через торрент бесплантно в хорошем качестве Описание: Скромняга Пьер-Поль, обладатель ученой степени, вынужден подрабатывать курьером. В один прекрасный день, доставляя очередную ... 10 10 1
Торрент: Зарегистрирован [2019-11-01 05:29] · скачан: 75 раз
Статус: √ проверено
Размер: 742 MB
Как cкачать? Как скачать Как отмыть миллион через торрент | qTorrent

Отключить всю рекламу на сайте
    Дорогой пользователь! Огромная просьба, поблагодарите релизера, оцените раздачу и оставьте свои комментарий, если Вы скачали Как отмыть миллион через торрент бесплатно! Внесите свою лепту в развитие PiratBit!
    Комментировать посты могут только пользователи прошедшие не сложную регистрацию
    Показать сообщения:    

    Как отмыть миллион через торрент
    Скачать бесплатно Как отмыть миллион
    Как отмыть миллион скачать торрент
    Как отмыть миллион смотреть онлайн
    Cкачать фильм Как отмыть миллион бесплатно
    Как отмыть миллион скачать торрент в хорошем качестве
    Как отмыть миллион смотреть онлайн бесплатно в хорошем качестве


    Вы не можете начинать темы
    Вы не можете отвечать на сообщения
    Вы не можете редактировать свои сообщения
    Вы не можете удалять свои сообщения
    Вы не можете голосовать в опросах
    Вы не можете прикреплять файлы к сообщениям
    Вы можете скачивать файлы