Ссылка на приватное зеркало нашего сайта всего за 1$. Внимание количество ограничено!!!

2 сезон

iTunes

1 сезон

1

iTunes

iTunes

iTunes

1 сезон

RePack

30

ИГРА 18+

pack

ВАЖНО

!!Акция!!

Alien_RageХит недели

RePack

MK11
pack

Забери бонус

RePack

jed

!!Акция!!

Alien_Rage

RePack

fifa19

RePack

Assassins Creed: Odyssey

RePack

NEED FOR SPEED™ PAYBACK

4 сезон

9 сезон

Бесстыжие 9 сезон

Все сериалы

все сериалы на PB.wtf

RePack

FAR CRY 5
  

Прятки / Сезон: 1 / Серии: 1-8 из 8 (Ирина Громозда) [2019, триллер, драма, криминал, детектив, WEB-DLRip] pb.wtf

Прятки через торрент pb.wtf

Раздают: 1 [ 2 KB/s ]
Размер: 4.87 GB | Добавлен: 11 мес. назад | Торрент скачан:67 раз
Скачать  

01-11-2019 18:51 Прятки Скачать торрент  

Прятки
Год выпуска: 2019
Страна: Украина
Жанр: триллер, драма, криминал, детектив
Продолжительность: ~ 00:47:00 серия
Перевод: Не требуется
Субтитры: отсутствуют

Режиссер: Ирина Громозда



В ролях: Юлия Абдель-Фаттах, Пётр Рыков, Александр Кобзарь, Вячеслав Довженко, Михаил Тройник, Яков Кучеревский, Олег Москаленко, Валерий Легин, Владимир Заец, Евгения Гладий, Александр Соколов (VI), Вячеслав Бабенков (II), Марина Куклина

Описание: О двух детективах, Варте Наумовой и Максиме Шумове, которые расследуют похищение маленькой девочки из запертой квартиры. Во время домашней игры таинственным образом исчезает девочка — из квартиры не выходила, дверь не открывала. Поняв, что дочка действительно исчезла, отец обращается в полицию. Позже в Сети появляется видео, где пропавшая девочка держит табличку с загадочной комбинацией цифр. Очевидно, что ребенок похищен, и это – лишь первая жертва в чьей-то сложной и жестокой игре.

Качество: WEB-DLRip
Формат: AVI

Видео: 720x360 (1.80:1), 25 fps, XviD, ~1600 kbps avg, 0.241 bit/pixel
Аудио: 48.0 kHz, AC3 Dolby Digital, 2/0 (L,R) ch, ~ 192 kbps
скриншот  скриншот  скриншот  скриншот  

General
Complete name: C:01.Прятки.(2019).WEB-DLRip.by.Nicodem.Files-x.avi
Format: AVI
Format/Info: Audio Video Interleave
File size: 587 MiB
Duration: 46mn 28s
Overall bit rate: 1 765 Kbps
Writing application: VirtualDubMod 1.5.10.3 | www.virtualdub-fr.org || (build 2550/release)
Writing library: VirtualDubMod build 2550/release

Video
ID: 0
Format: MPEG-4 Visual
Format profile: Advanced Simple@L5
Format settings, BVOP: 1
Format settings, QPel: No
Format settings, GMC: No warppoints
Format settings, Matrix: Custom
Codec ID: XVID
Codec ID/Hint: XviD
Duration: 46mn 28s
Bit rate: 1 563 Kbps
Width: 720 pixels
Height: 360 pixels
Display aspect ratio: 2.000
Frame rate: 25.000 fps
Color space: YUV
Chroma subsampling: 4:2:0
Bit depth: 8 bits
Scan type: Progressive
Compression mode: Lossy
Bits/(Pixel*Frame): 0.241
Stream size: 520 MiB (89%)
Writing library: XviD 73

Audio
ID: 1
Format: AC-3
Format/Info: Audio Coding 3
Mode extension: CM (complete main)
Codec ID: 2000
Duration: 46mn 28s
Bit rate mode: Constant
Bit rate: 192 Kbps
Channel(s): 2 channels
Channel positions: Front: L R
Sampling rate: 48.0 KHz
Bit depth: 16 bits
Compression mode: Lossy
Stream size: 63.8 MiB (11%)
Alignment: Split accross interleaves
Interleave, duration: 40 ms (1.00 video frame)
Interleave, preload duration: 500 ms

pb.wtf



Скачать Прятки через торрент https://i106.fastpic.ru/big/2019/1030/08/53f137d720d6ce2d56d7ff9eb8871608.jpg Скачать фильм Прятки через торрент бесплантно в хорошем качестве Описание: О двух детективах, Варте Наумовой и Максиме Шумове, которые расследуют похищение маленькой девочки из запертой квартиры. Во время ... 10 10 2
Торрент: Зарегистрирован [2019-11-01 18:51] · скачан: 67 раз
Статус: √ проверено
Размер: 4.87 GB
Как cкачать? Как скачать Прятки через торрент | qTorrent

% Раздел Тема Автор DL S | L
Наши сериалы [ 4.88 GB ] Прятки / Сезон: 1 / Серии: 1-8 из 8 [2019 WEB-DLRip-AVC] bober100 Скачать
1 | 0
Наши сериалы [ 11.27 GB ] Прятки / Сезон: 1 / Серии: 1-8 из 8 [2019 WEB-DL 1080p] bober100 Скачать
1 | 0

28-11-2019 20:33  

Отключить всю рекламу на сайте

    Дорогой пользователь! Огромная просьба, поблагодарите релизера, оцените раздачу и оставьте свои комментарий, если Вы скачали Прятки через торрент бесплатно! Внесите свою лепту в развитие PiratBit!
    Комментировать посты могут только пользователи прошедшие не сложную регистрацию
    Показать сообщения:    

    Прятки через торрент
    Скачать бесплатно Прятки
    Прятки скачать торрент
    Прятки смотреть онлайн
    Cкачать фильм Прятки бесплатно
    Прятки скачать торрент в хорошем качестве
    Прятки смотреть онлайн бесплатно в хорошем качестве


    Вы не можете начинать темы
    Вы не можете отвечать на сообщения
    Вы не можете редактировать свои сообщения
    Вы не можете удалять свои сообщения
    Вы не можете голосовать в опросах
    Вы не можете прикреплять файлы к сообщениям
    Вы можете скачивать файлы