Ссылка на приватное зеркало нашего сайта всего за 1$. Внимание количество ограничено!!!

2 сезон

iTunes

1 сезон

1

2 сезон

2 сезон

iTunes

1 сезон

RePack

30

Новинка

ВАЖНО

ИГРА 18+

pack

RePack

MK11
pack

Забери бонус

RePack

jed

!!Акция!!

Alien_Rage

RePack

fifa19

RePack

Assassins Creed: Odyssey

RePack

NEED FOR SPEED™ PAYBACK

4 сезон

9 сезон

Бесстыжие 9 сезон

Все сериалы

все сериалы на PB.wtf

RePack

FAR CRY 5
  

На линии огня / In the Line of Fire (Вольфганг Петерсен) [1993, боевик, триллер, драма, криминал, детектив, Blu-Ray Remux 1080p] DUB, 3xMVO, 4xAVO pb.wtf

На линии огня через торрент pb.wtf

Размер: 29.15 GB | Добавлен: 1 год 1 мес. назад | Торрент скачан:1 раз
Скачать  

01-11-2019 19:26 На линии огня Скачать торрент  

На линии огня / In the Line of Fire
Год выпуска: 1993

Страна: США

Жанр: Боевик, триллер, драма, криминал, детектив

Продолжительность: 02:08:37

Перевод: Дублированный, профессиональный (многоголосый), авторский (одноголосый)

Субтитры: Русские, английские

Режиссер: Вольфганг Петерсен

rating

В ролях: Клинт Иствуд, Джон Малкович, Рене Руссо, Дилан МакДермотт, Гэри Коул, Фред Долтон Томпсон, Джон Махони, Грегори Алан Уильямс, Джим Керли, Сэлли Хьюз, Клайд Кусацу, Стив Хитнер, Тобин Белл, Боб Шотт, Хуан А. Риохас, Эльза Рэйвен, Артур Сенци, Пэтрика Дарбо, Мэри Ван Арсдел, Райан Кутрона, Лоуренс Лоу, Брайан Либби, Эрик Браскоттер, Патрик Кэдделл, Джон Хёрд, Алан Той, Карл Киарфалио, Уолт МакФерсон, Роберт Питерс, Тайд Кирни, Энтони Пек, Рик Херст, Дорис Э. МакМиллон, Роберт Сандовал, Джошуа Малина, Уильям Дж. Шиллинг, Майкл Кирк, Ричард Г. Кампуис

Описание: В тот злополучный день, когда в Далласе был убит президент Кеннеди, Фрэнк Хорриган находился среди охраны. Воспоминания о невыполненной миссии уже много лет не дают ему спать спокойно. Спустя 30 лет маньяк-психопат, угрожающий убить президента, выбирает Фрэнка мишенью для преследования. И в этой опасной игре только сила воли решит, кто останется в живых…
Качество: Blu-Ray Remux 1080p
Формат: MKV
Видео: MPEG 4-AVC, 24.9 Мбит/с, 1920х1080, 23.976 кадр/с
Аудио#1: Русский, DTS-HD, 6 ch, 2171 Кбит/сек - AVO (Михаил Яроцкий - ненормативная лексика)
Аудио#2: Русский, DTS, 6 ch, 755 Кбит/сек - AVO (Юрий Живов)
Аудио#3: Русский, AC-3, 6 ch, 384 Кбит/сек - AVO (Андрей Гаврилов)
Аудио#4: Русский, AC-3, 6 ch, 640 Кбит/сек - DUB (Blu-Ray CEE)
Аудио#5: Русский, AC-3, 6 ch, 448 Кбит/сек - MVO (Видеосервис)
Аудио#6: Русский, AC-3, 2 ch, 192 Кбит/сек - MVO (OPT)
Аудио#7: Русский, AC-3, 2 ch, 192 Кбит/сек - AVO (В. Горчаков)
Аудио#8: Украинский, AC-3, 6 ch, 384 Кбит/сек - MVO (Так Треба Продакшн/НТН)
Аудио#9: Английский, TrueHD, 6 ch, 1435 Кбит/сек
Аудио#10: Английский, AC-3, 6 ch, 640 Кбит/сек
Видео
Идентификатор : 1
Формат : AVC
Формат/Информация : Advanced Video Codec
Профиль формата : High@L4.1
Настройки формата : CABAC / 2 Ref Frames
Параметр CABAC формата : Да
Параметр RefFrames формата : 2 кадра
Идентификатор кодека : V_MPEG4/ISO/AVC
Продолжительность : 2 ч. 8 м.
Вид битрейта : Переменный
Битрейт : 24,9 Мбит/сек
Ширина : 1920 пикселей
Высота : 1080 пикселей
Соотношение сторон : 16:9
Режим частоты кадров : Постоянный
Частота кадров : 23,976 (24000/1001) кадра/сек
Цветовое пространство : YUV
Субдискретизация насыщенности : 4:2:0
Битовая глубина : 8 бит
Тип развёртки : Прогрессивная
Бит/(Пиксели*Кадры) : 0.502
Размер потока : 22,4 Гбайт (77%)
Язык : English
Default : Да
Forced : Нет

Аудио #1
Идентификатор : 2
Формат : DTS XLL
Формат/Информация : Digital Theater Systems
Коммерческое название : DTS-HD Master Audio
Идентификатор кодека : A_DTS
Продолжительность : 2 ч. 8 м.
Вид битрейта : Переменный
Битрейт : 2171 Кбит/сек
Каналы : 6 каналов
ChannelLayout : C L R Ls Rs LFE
Частота : 48,0 КГц
Частота кадров : 93,750 кадра/сек (512 SPF)
Битовая глубина : 16 бит
Метод сжатия : Без потерь
Размер потока : 1,95 Гбайт (7%)
Заголовок : AVO (М. Яроцкий 'Kyberpunk')
Язык : Russian
Default : Да
Forced : Нет

Аудио #2
Идентификатор : 3
Формат : DTS
Формат/Информация : Digital Theater Systems
Идентификатор кодека : A_DTS
Продолжительность : 2 ч. 8 м.
Вид битрейта : Постоянный
Битрейт : 755 Кбит/сек
Каналы : 6 каналов
ChannelLayout : C L R Ls Rs LFE
Частота : 48,0 КГц
Частота кадров : 93,750 кадра/сек (512 SPF)
Битовая глубина : 24 бит
Метод сжатия : С потерями
Размер потока : 694 Мбайт (2%)
Заголовок : AVO (Ю. Живов)
Язык : Russian
Default : Нет
Forced : Нет

Аудио #3
Идентификатор : 4
Формат : AC-3
Формат/Информация : Audio Coding 3
Коммерческое название : Dolby Digital
Идентификатор кодека : A_AC3
Продолжительность : 2 ч. 8 м.
Вид битрейта : Постоянный
Битрейт : 384 Кбит/сек
Каналы : 6 каналов
ChannelLayout : L R C LFE Ls Rs
Частота : 48,0 КГц
Частота кадров : 31,250 кадров/сек (1536 SPF)
Битовая глубина : 16 бит
Метод сжатия : С потерями
Размер потока : 353 Мбайт (1%)
Заголовок : AVO (А. Гаврилов)
Язык : Russian
ServiceKind/String : Complete Main
Default : Нет
Forced : Нет

Аудио #4
Идентификатор : 5
Формат : AC-3
Формат/Информация : Audio Coding 3
Коммерческое название : Dolby Digital
Идентификатор кодека : A_AC3
Продолжительность : 2 ч. 8 м.
Вид битрейта : Постоянный
Битрейт : 640 Кбит/сек
Каналы : 6 каналов
ChannelLayout : L R C LFE Ls Rs
Частота : 48,0 КГц
Частота кадров : 31,250 кадров/сек (1536 SPF)
Битовая глубина : 16 бит
Метод сжатия : С потерями
Размер потока : 589 Мбайт (2%)
Заголовок : Dub (Blu-ray CEE)
Язык : Russian
ServiceKind/String : Complete Main
Default : Нет
Forced : Нет

Аудио #5
Идентификатор : 6
Формат : AC-3
Формат/Информация : Audio Coding 3
Коммерческое название : Dolby Digital
Идентификатор кодека : A_AC3
Продолжительность : 2 ч. 8 м.
Вид битрейта : Постоянный
Битрейт : 448 Кбит/сек
Каналы : 6 каналов
ChannelLayout : L R C LFE Ls Rs
Частота : 48,0 КГц
Частота кадров : 31,250 кадров/сек (1536 SPF)
Битовая глубина : 16 бит
Метод сжатия : С потерями
Размер потока : 412 Мбайт (1%)
Заголовок : MVO (Видеосервис)
Язык : Russian
ServiceKind/String : Complete Main
Default : Нет
Forced : Нет

Аудио #6
Идентификатор : 7
Формат : AC-3
Формат/Информация : Audio Coding 3
Коммерческое название : Dolby Digital
Идентификатор кодека : A_AC3
Продолжительность : 2 ч. 8 м.
Вид битрейта : Постоянный
Битрейт : 192 Кбит/сек
Каналы : 2 канала
ChannelLayout : L R
Частота : 48,0 КГц
Частота кадров : 31,250 кадров/сек (1536 SPF)
Битовая глубина : 16 бит
Метод сжатия : С потерями
Размер потока : 177 Мбайт (1%)
Заголовок : MVO (OPT)
Язык : Russian
ServiceKind/String : Complete Main
Default : Нет
Forced : Нет

Аудио #7
Идентификатор : 8
Формат : AC-3
Формат/Информация : Audio Coding 3
Коммерческое название : Dolby Digital
Идентификатор кодека : A_AC3
Продолжительность : 2 ч. 8 м.
Вид битрейта : Постоянный
Битрейт : 192 Кбит/сек
Каналы : 2 канала
ChannelLayout : L R
Частота : 48,0 КГц
Частота кадров : 31,250 кадров/сек (1536 SPF)
Битовая глубина : 16 бит
Метод сжатия : С потерями
Размер потока : 177 Мбайт (1%)
Заголовок : AVO (В. Горчаков)
Язык : Russian
ServiceKind/String : Complete Main
Default : Нет
Forced : Нет

Аудио #8
Идентификатор : 9
Формат : AC-3
Формат/Информация : Audio Coding 3
Коммерческое название : Dolby Digital
Идентификатор кодека : A_AC3
Продолжительность : 2 ч. 8 м.
Вид битрейта : Постоянный
Битрейт : 384 Кбит/сек
Каналы : 6 каналов
ChannelLayout : L R C LFE Ls Rs
Частота : 48,0 КГц
Частота кадров : 31,250 кадров/сек (1536 SPF)
Битовая глубина : 16 бит
Метод сжатия : С потерями
Размер потока : 353 Мбайт (1%)
Заголовок : MVO (Так Треба Продакшн/НТН)
Язык : Ukrainian
ServiceKind/String : Complete Main
Default : Нет
Forced : Нет

Аудио #9
Идентификатор : 10
Формат : MLP FBA
Формат/Информация : Meridian Lossless Packing FBA
Коммерческое название : Dolby TrueHD
Идентификатор кодека : A_TRUEHD
Продолжительность : 2 ч. 8 м.
Вид битрейта : Переменный
Битрейт : 1435 Кбит/сек
Максимальный битрейт : 2970 Кбит/сек
Каналы : 6 каналов
ChannelLayout : L R C LFE Ls Rs
Частота : 48,0 КГц
Частота кадров : 1200,000 кадров/сек (40 SPF)
Метод сжатия : Без потерь
Размер потока : 1,29 Гбайт (4%)
Заголовок : Original
Язык : English
Default : Нет
Forced : Нет

Аудио #10
Идентификатор : 11
Формат : AC-3
Формат/Информация : Audio Coding 3
Коммерческое название : Dolby Digital
Идентификатор кодека : A_AC3
Продолжительность : 2 ч. 8 м.
Вид битрейта : Постоянный
Битрейт : 640 Кбит/сек
Каналы : 6 каналов
ChannelLayout : L R C LFE Ls Rs
Частота : 48,0 КГц
Частота кадров : 31,250 кадров/сек (1536 SPF)
Битовая глубина : 16 бит
Метод сжатия : С потерями
Размер потока : 589 Мбайт (2%)
Язык : English
ServiceKind/String : Complete Main
Default : Нет
Forced : Нет

Аудио #11
Идентификатор : 12
Формат : AC-3
Формат/Информация : Audio Coding 3
Коммерческое название : Dolby Digital
Идентификатор кодека : A_AC3
Продолжительность : 2 ч. 8 м.
Вид битрейта : Постоянный
Битрейт : 192 Кбит/сек
Каналы : 2 канала
ChannelLayout : L R
Частота : 48,0 КГц
Частота кадров : 31,250 кадров/сек (1536 SPF)
Битовая глубина : 16 бит
Метод сжатия : С потерями
Размер потока : 177 Мбайт (1%)
Заголовок : Комментарии
Язык : English
ServiceKind/String : Complete Main
Default : Нет
Forced : Нет

Текст #1
Идентификатор : 13
Формат : UTF-8
Идентификатор кодека : S_TEXT/UTF8
Идентификатор кодека/Информация : UTF-8 Plain Text
Продолжительность : 2 ч. 1 м.
Битрейт : 70 бит/сек
ElementCount : 866
Размер потока : 62,6 Кбайт (0%)
Язык : Russian
Default : Нет
Forced : Нет

Текст #2
Идентификатор : 14
Формат : UTF-8
Идентификатор кодека : S_TEXT/UTF8
Идентификатор кодека/Информация : UTF-8 Plain Text
Продолжительность : 2 ч. 1 м.
Битрейт : 45 бит/сек
ElementCount : 921
Размер потока : 40,1 Кбайт (0%)
Язык : English
Default : Нет
Forced : Нет

Меню
00:00:00.000 : :Chapter 01
00:07:25.278 : :Chapter 02
00:11:48.082 : :Chapter 03
00:15:07.114 : :Chapter 04
00:23:37.457 : :Chapter 05
00:32:09.385 : :Chapter 06
00:40:56.787 : :Chapter 07
00:48:47.633 : :Chapter 08
00:56:36.351 : :Chapter 09
01:07:43.434 : :Chapter 10
01:12:28.385 : :Chapter 11
01:20:42.796 : :Chapter 12
01:35:50.202 : :Chapter 13
01:52:22.777 : :Chapter 14
01:54:12.095 : :Chapter 15
01:57:39.469 : :Chapter 16

скриншот   скриншот   скриншот   скриншот   скриншот  

pb.wtf



Скачать На линии огня через торрент http://pic1.kartinco.top/images/12/2ilmi.jpg Скачать фильм На линии огня через торрент бесплантно в хорошем качестве Описание: В тот злополучный день, когда в Далласе был убит президент Кеннеди, Фрэнк Хорриган находился среди охраны. Воспоминания о ... 10 10 2
Info! Золотая раздача, скачанное не засчитывается.
Торрент: Зарегистрирован [2019-11-01 19:26] · скачан: 1 раз
Статус: √ проверено
Размер: 29.15 GB
Как cкачать? Как скачать На линии огня через торрент | qTorrent

28-11-2019 20:33  

Отключить всю рекламу на сайте

    Дорогой пользователь! Огромная просьба, поблагодарите релизера, оцените раздачу и оставьте свои комментарий, если Вы скачали На линии огня через торрент бесплатно! Внесите свою лепту в развитие PiratBit!
    Комментировать посты могут только пользователи прошедшие не сложную регистрацию
    Показать сообщения:    

    На линии огня через торрент
    Скачать бесплатно На линии огня
    На линии огня скачать торрент
    На линии огня смотреть онлайн
    Cкачать фильм На линии огня бесплатно
    На линии огня скачать торрент в хорошем качестве
    На линии огня смотреть онлайн бесплатно в хорошем качестве


    Вы не можете начинать темы
    Вы не можете отвечать на сообщения
    Вы не можете редактировать свои сообщения
    Вы не можете удалять свои сообщения
    Вы не можете голосовать в опросах
    Вы не можете прикреплять файлы к сообщениям
    Вы можете скачивать файлы