Ссылка на приватное зеркало всего за 1$. Внимание количество ограничено!!!

iTunes

1+1

iTunes

мы

WEB-DL

1

iTunes

Чернобыль

iTunes

Ральф против интернета

Лицензия

ПШазам

Лицензия

Оно 2

Лицензия

30
pack

Вам бонус

ВАЖНО

!!Акция!!

Alien_RageХит недели

RePack

Resident Evil 21

ИГРА 18+

pack

RePack

jed

!!Акция!!

Alien_Rage

RePack

fifa19

RePack

Assassins Creed: Odyssey

RePack

NEED FOR SPEED™ PAYBACK

3 сезон

9 сезон

Бесстыжие 9 сезон

Все сериалы

все сериалы на PB.wtf

RePack

FAR CRY 5
Ребята, катастрофически не хватает 1900р. для оплаты серверов за Октябрь (всвязи с блокировками трафик упал в 3 раза), 1-2р., выручайте.
  

Операция «Колибри» / The Hummingbird Project (Ким Нгуйен) [2018, Триллер, BDRip-AVC] DUB [iTunes] - OlLanDGroup pb.wtf

Операция «Колибри» через торрент pb.wtf

Раздают: 10 [ 0 KB/s ]
Размер: 1.46 GB | Добавлен: 1 мес. 11 д. назад | Торрент скачан:175 раз
Скачать  

01-11-2019 21:20 Операция «Колибри» Скачать торрент  

Операция «Колибри» / The Hummingbird Project

«We're all driven, until we are pushed over the Line»
Год выпуска: 2018
Страна: Бельгия, Канада
Производство: Item 7, Belga Productions
Жанр: Триллер
Продолжительность: 01:50:37

Перевод: Дублированный | iTunes
Субтитры: Русские (полные), Английские (полные)

Режиссер: Ким Нгуйен


rating

В ролях: Джесси Айзенберг (Vincent Zaleski), Александр Скарсгард (Anton Zaleski), Сальма Хайек (Eva Torres), Майкл Мэндо (Mark Vega), Йохан Хелденберг (Amish Elder), Аиша Исса (Ophelia Troller), Марк Слэк (Tasso Casilieris), Сара Голдберг (Mascha), Фрэнк Скорпион (Bryan Taylor), Кваси Сонгуи (Ray Engineer), Конрад Пла (Agent Santana), Джулиан Бэйли (Elliot)

Описание: Двоюродные братья Винсент и Антон живут в мире высокочастотного трейдинга, где каждая миллисекунда может стоить миллиарды. Они решаются реализовать давно задуманный проект. Казалось бы, все продумано до мелочей и шансы на успех велики как никогда. Однако на пути братьев встает их бывший босс Эва Торрес - беспринципный злой гений, ставшая их заклятым врагом. Ставки высоки, проигравший теряет всё или, наоборот, приобретает нечто большее, поистине бесценное.

Качество: BDRip-AVC
Формат: MKV

Видео: 720x306 (2.35:1), 23.976 fps, x264 ~1 502 kbps avg, 0.284 bit/pixel
Аудио : 48 kHz, AC3 Dolby Digital Plus, 3/2 (L,C,R,l,r) + LFE ch, ~384.00 kbps avg | RUS (iTunes)
General
Unique ID : 178827260410570919454497229575428593989 (0x8688E0A8692BD9342AC256922CF55945)
Complete name : D:\OlLanDGroup\iTunes\The.Hummingbird.Project.2018.BDRip(AVC).1.45Gb.OlLanDGroup.mkv
Format : Matroska
Format version : Version 4
File size : 1.46 GiB
Duration : 1 h 50 min
Overall bit rate : 1 887 kb/s
Movie name : The.Hummingbird.Project.2018.BDRip(AVC).1.45Gb.OlLanDGroup#Skandar#
Encoded date : UTC 2019-11-01 20:46:33
Writing application : mkvmerge v31.0.0 ('Dolores In A Shoestand') 64-bit
Writing library : libebml v1.3.6 + libmatroska v1.4.9

Video
ID : 1
Format : AVC
Format/Info : Advanced Video Codec
Format profile : High@L4.1
Format settings : CABAC / 10 Ref Frames
Format settings, CABAC : Yes
Format settings, ReFrames : 10 frames
Codec ID : V_MPEG4/ISO/AVC
Duration : 1 h 50 min
Bit rate : 1 502 kb/s
Width : 720 pixels
Height : 306 pixels
Display aspect ratio : 2.35:1
Frame rate mode : Constant
Frame rate : 23.976 (24000/1001) FPS
Color space : YUV
Chroma subsampling : 4:2:0
Bit depth : 8 bits
Scan type : Progressive
Bits/(Pixel*Frame) : 0.284
Stream size : 1.16 GiB (80%)
Title : The.Hummingbird.Project.2018.BDRip(AVC).1.45Gb.OlLanDGroup#Skandar#
Writing library : x264 core 146 r2538 121396c
Encoding settings : cabac=1 / ref=10 / deblock=1:-3:-3 / analyse=0x3:0x133 / me=umh / subme=11 / psy=1 / psy_rd=0.97:0.05 / mixed_ref=1 / me_range=48 / chroma_me=1 / trellis=2 / 8x8dct=1 / cqm=0 / deadzone=21,11 / fast_pskip=0 / chroma_qp_offset=-3 / threads=6 / lookahead_threads=1 / sliced_threads=0 / nr=0 / decimate=0 / interlaced=0 / bluray_compat=0 / constrained_intra=0 / bframes=11 / b_pyramid=2 / b_adapt=2 / b_bias=0 / direct=3 / weightb=1 / open_gop=0 / weightp=2 / keyint=240 / keyint_min=23 / scenecut=40 / intra_refresh=0 / rc_lookahead=40 / rc=2pass / mbtree=0 / bitrate=1502 / ratetol=1.0 / qcomp=0.60 / qpmin=0 / qpmax=69 / qpstep=4 / cplxblur=20.0 / qblur=0.5 / vbv_maxrate=50000 / vbv_bufsize=62500 / nal_hrd=none / filler=0 / ip_ratio=1.40 / pb_ratio=1.30 / aq=1:1.00
Language : Russian
Default : Yes
Forced : No

Audio
ID : 2
Format : AC-3
Format/Info : Audio Coding 3
Commercial name : Dolby Digital
Codec ID : A_AC3
Duration : 1 h 50 min
Bit rate mode : Constant
Bit rate : 384 kb/s
Channel(s) : 6 channels
Channel layout : L R C LFE Ls Rs
Sampling rate : 48.0 kHz
Frame rate : 31.250 FPS (1536 SPF)
Bit depth : 16 bits
Compression mode : Lossy
Stream size : 304 MiB (20%)
Title : DUB (iTunes)
Language : Russian
Service kind : Complete Main
Default : Yes
Forced : No

Text #1
ID : 3
Format : UTF-8
Codec ID : S_TEXT/UTF8
Codec ID/Info : UTF-8 Plain Text
Duration : 1 h 42 min
Bit rate : 132 b/s
Count of elements : 1927
Stream size : 99.5 KiB (0%)
Title : Full
Language : Russian
Default : No
Forced : No

Text #2
ID : 4
Format : UTF-8
Codec ID : S_TEXT/UTF8
Codec ID/Info : UTF-8 Plain Text
Duration : 1 h 45 min
Bit rate : 83 b/s
Count of elements : 2019
Stream size : 64.0 KiB (0%)
Title : Full
Language : English
Default : No
Forced : No

Menu
00:00:00.000 : en:Chapter 01
00:09:59.265 : en:Chapter 02
00:20:45.703 : en:Chapter 03
00:30:31.329 : en:Chapter 04
00:40:32.555 : en:Chapter 05
00:50:20.684 : en:Chapter 06
01:00:52.357 : en:Chapter 07
01:10:05.326 : en:Chapter 08
01:19:56.333 : en:Chapter 09
01:29:57.892 : en:Chapter 10
01:39:37.555 : en:Chapter 11
Релиз от:
pb.wtf



Скачать Операция «Колибри» через торрент https://i106.fastpic.ru/big/2019/0702/02/7b48256d5b4944905f91dd188bf3d002.jpg Скачать фильм Операция «Колибри» через торрент бесплантно в хорошем качестве Описание: Двоюродные братья Винсент и Антон живут в мире высокочастотного трейдинга, где каждая миллисекунда может стоить миллиарды. Они ... 7.8 10 4
Торрент: Зарегистрирован [2019-11-01 21:20] · скачан: 175 раз
Статус: √ проверено
Размер: 1.46 GB
Как cкачать? Как скачать Операция «Колибри» через торрент | qTorrent

28-11-2019 20:33  

Отключить всю рекламу на сайте

02-11-2019 13:55 Операция «Колибри» Скачать торрент  

скучновато , слабовато .pb.wtf



    Дорогой пользователь! Огромная просьба, поблагодарите релизера, оцените раздачу и оставьте свои комментарий, если Вы скачали Операция «Колибри» через торрент бесплатно! Внесите свою лепту в развитие PiratBit!
    Комментировать посты могут только пользователи прошедшие не сложную регистрацию
    Показать сообщения:    

    Операция «Колибри» через торрент
    Скачать бесплатно Операция «Колибри»
    Операция «Колибри» скачать торрент
    Операция «Колибри» смотреть онлайн
    Cкачать фильм Операция «Колибри» бесплатно
    Операция «Колибри» скачать торрент в хорошем качестве
    Операция «Колибри» смотреть онлайн бесплатно в хорошем качестве


    Вы не можете начинать темы
    Вы не можете отвечать на сообщения
    Вы не можете редактировать свои сообщения
    Вы не можете удалять свои сообщения
    Вы не можете голосовать в опросах
    Вы не можете прикреплять файлы к сообщениям
    Вы можете скачивать файлы