Ссылка на приватное зеркало нашего сайта всего за 1$. Внимание количество ограничено!!!

2 сезон

iTunes

1 сезон

1

iTunes

iTunes

iTunes

1 сезон

RePack

30

ИГРА 18+

pack

ВАЖНО

!!Акция!!

Alien_RageХит недели

RePack

MK11
pack

Забери бонус

RePack

jed

!!Акция!!

Alien_Rage

RePack

fifa19

RePack

Assassins Creed: Odyssey

RePack

NEED FOR SPEED™ PAYBACK

4 сезон

9 сезон

Бесстыжие 9 сезон

Все сериалы

все сериалы на PB.wtf

RePack

FAR CRY 5
  

Angry Birds 2 в кино / The Angry Birds Movie 2 (Туроп Ван Орман) [2019, мультфильм, комедия, приключения, семейный, BDRip-AVC] DUB [iTunes] - ExKinoRay pb.wtf

Angry Birds 2 в кино через торрент pb.wtf

Раздают: 194 [ 50 KB/s ] Качают: 1 [ 10 KB/s ]
Размер: 1.99 GB | Добавлен: 11 мес. назад | Торрент скачан:1696 раз
Скачать  

02-11-2019 03:26 Angry Birds 2 в кино Скачать торрент  

Название: Angry Birds 2 в кино
Оригинальное название: The Angry Birds Movie 2
Год выпуска: 2019
Жанр: Мультфильм, комедия, приключения, семейный, полнометражный
Режиссер: Туроп Ван Орман, Джон Райс
В ролях: Аквафина, Дав Кэмерон, Билл Хэйдер, Дэнни Макбрайд, Питер Динклэйдж, Тиффани Хэддиш, Майя Рудольф, Джейсон Судейкис, Стерлинг К. Браун, Эухенио Дербес, Джош Гэд, Лесли Джонс, Рэйчел Блум

Описание: Птицы узнали о существовании голодных зелёных свиней, после чего началась священная война, которая длилась многие годы. Однако теперь на горизонте появился новый враг — Зета, обитательница третьего, замёрзшего острова. Она считает, что все должны почувствовать на себе силу холода, и начинает атаку на дальних родственников, обитающих в тёплых краях. Теперь птицы и свиньи должны объединиться, чтобы остановить заморозки.

rating

Страна: США, Финляндия
Студия: Rovio Animation, Sony Pictures Animation
Продолжительность: 01:36:47
Перевод: Дублированный | iTunes

Формат: MKV
Качество: BDRip-AVC
Видео: MPEG-4 AVC, 1024x554 (1.85:1), 23.976 fps, 2560 Kbps, 0.188 bit/pixel
Аудио : 48 kHz, AC3, 5.1, 384 Kbps | RUS |
Субтитры: Русские (полные, форсированные), украинские (полные), английские
x264 [info]: frame I:1758 Avg QP:15.23 size:104911
x264 [info]: frame P:42262 Avg QP:18.98 size: 23385
x264 [info]: frame B:95228 Avg QP:20.76 size: 7210
------------------------------------------------------------------
General
Unique ID : 240185676248006858880860140433642511160 (0xB4B2141FC72980DDA68D7843DE365B38)
Complete name : F:\The.Angry.Birds.Movie.2.2019.BDRip.AVC.ExKinoRay.mkv
Format : Matroska
Format version : Version 2
File size : 1.99 GiB
Duration : 1 h 36 min
Overall bit rate : 2 947 kb/s
Movie name : The.Angry.Birds.Movie.2.2019 from ExKinoRay
Encoded date : UTC 2019-11-02 02:22:17
Writing application : mkvmerge v5.6.0 ('Kenya Kane') built on May 27 2012 16:44:04
Writing library : libebml v1.2.3 + libmatroska v1.3.0

Video
ID : 1
Format : AVC
Format/Info : Advanced Video Codec
Format profile : High@L4.1
Format settings, CABAC : Yes
Format settings, ReFrames : 11 frames
Codec ID : V_MPEG4/ISO/AVC
Duration : 1 h 36 min
Bit rate : 2 560 kb/s
Width : 1 024 pixels
Height : 554 pixels
Display aspect ratio : 1.85:1
Frame rate mode : Constant
Frame rate : 23.976 (23976/1000) FPS
Color space : YUV
Chroma subsampling : 4:2:0
Bit depth : 8 bits
Scan type : Progressive
Bits/(Pixel*Frame) : 0.188
Stream size : 1.69 GiB (85%)
Title : Enigma
Writing library : x264 core 152 r2851 ba24899
Encoding settings : cabac=1 / ref=11 / deblock=1:-2:-2 / analyse=0x3:0x113 / me=umh / subme=10 / psy=1 / psy_rd=1.00:0.04 / mixed_ref=1 / me_range=32 / chroma_me=1 / trellis=2 / 8x8dct=1 / cqm=0 / deadzone=21,11 / fast_pskip=0 / chroma_qp_offset=-3 / threads=12 / lookahead_threads=3 / sliced_threads=0 / nr=0 / decimate=0 / interlaced=0 / bluray_compat=0 / constrained_intra=0 / bframes=10 / b_pyramid=2 / b_adapt=2 / b_bias=0 / direct=3 / weightb=1 / open_gop=0 / weightp=2 / keyint=240 / keyint_min=23 / scenecut=40 / intra_refresh=0 / rc=2pass / mbtree=0 / bitrate=2560 / ratetol=1.0 / qcomp=0.60 / qpmin=0 / qpmax=51 / qpstep=4 / cplxblur=20.0 / qblur=0.5 / ip_ratio=1.40 / pb_ratio=1.30 / aq=1:1.00
Language : English
Default : Yes
Forced : No
Color range : Limited
Color primaries : BT.709
Transfer characteristics : BT.709
Matrix coefficients : BT.709

Audio
ID : 2
Format : AC-3
Format/Info : Audio Coding 3
Mode extension : CM (complete main)
Format settings, Endianness : Big
Codec ID : A_AC3
Duration : 1 h 36 min
Bit rate mode : Constant
Bit rate : 384 kb/s
Channel(s) : 6 channels
Channel positions : Front: L C R, Side: L R, LFE
Sampling rate : 48.0 kHz
Frame rate : 31.250 FPS (1536 spf)
Compression mode : Lossy
Stream size : 266 MiB (13%)
Title : iTunes
Language : Russian
Default : Yes
Forced : No

Text #1
ID : 3
Format : UTF-8
Codec ID : S_TEXT/UTF8
Codec ID/Info : UTF-8 Plain Text
Title : Forced
Language : Russian
Default : Yes
Forced : No

Text #2
ID : 4
Format : UTF-8
Codec ID : S_TEXT/UTF8
Codec ID/Info : UTF-8 Plain Text
Title : Full
Language : Russian
Default : No
Forced : No

Text #3
ID : 5
Format : UTF-8
Codec ID : S_TEXT/UTF8
Codec ID/Info : UTF-8 Plain Text
Title : Full
Language : Ukrainian
Default : No
Forced : No

Text #4
ID : 6
Format : UTF-8
Codec ID : S_TEXT/UTF8
Codec ID/Info : UTF-8 Plain Text
Title : Full
Language : English
Default : No
Forced : No

Text #5
ID : 7
Format : UTF-8
Codec ID : S_TEXT/UTF8
Codec ID/Info : UTF-8 Plain Text
Title : SDH
Language : English
Default : No
Forced : No

Menu
00:00:00.000 : en:Chapter 01
00:05:19.486 : en:Chapter 02
00:12:05.892 : en:Chapter 03
00:18:52.673 : en:Chapter 04
00:24:11.867 : en:Chapter 05
00:28:46.683 : en:Chapter 06
00:34:48.461 : en:Chapter 07
00:40:10.158 : en:Chapter 08
00:47:10.828 : en:Chapter 09
00:52:56.382 : en:Chapter 10
00:58:04.690 : en:Chapter 11
01:04:36.122 : en:Chapter 12
01:09:55.650 : en:Chapter 13
01:15:40.286 : en:Chapter 14
01:21:11.116 : en:Chapter 15
01:26:26.848 : en:Chapter 16


Релиз от:

Автор релиза: pb.wtf



Скачать Angry Birds 2 в кино через торрент https://c.radikal.ru/c41/1910/01/5fa912790c5f.png Скачать фильм Angry Birds 2 в кино через торрент бесплантно в хорошем качестве Описание: Птицы узнали о существовании голодных зелёных свиней, после чего началась священная война, которая длилась многие годы. Однако ... 10 10 21
Info! Золотая раздача, скачанное не засчитывается.
Торрент: Зарегистрирован [2019-11-02 03:26] · скачан: 1 696 раз
Статус: √ проверено
Размер: 1.99 GB
Как cкачать? Как скачать Angry Birds 2 в кино через торрент | qTorrent

28-11-2019 20:33  

Отключить всю рекламу на сайте

02-11-2019 09:19 Angry Birds 2 в кино Скачать торрент  

Зацените ужастики:

pb.wtf



    Дорогой пользователь! Огромная просьба, поблагодарите релизера, оцените раздачу и оставьте свои комментарий, если Вы скачали Angry Birds 2 в кино через торрент бесплатно! Внесите свою лепту в развитие PiratBit!
    Комментировать посты могут только пользователи прошедшие не сложную регистрацию
    Показать сообщения:    

    Angry Birds 2 в кино через торрент
    Скачать бесплатно Angry Birds 2 в кино
    Angry Birds 2 в кино скачать торрент
    Angry Birds 2 в кино смотреть онлайн
    Cкачать фильм Angry Birds 2 в кино бесплатно
    Angry Birds 2 в кино скачать торрент в хорошем качестве
    Angry Birds 2 в кино смотреть онлайн бесплатно в хорошем качестве


    Вы не можете начинать темы
    Вы не можете отвечать на сообщения
    Вы не можете редактировать свои сообщения
    Вы не можете удалять свои сообщения
    Вы не можете голосовать в опросах
    Вы не можете прикреплять файлы к сообщениям
    Вы можете скачивать файлы