новый адрес пиратбит piratbit
Мега распродажа FORZA HORIZON 4 ULTIMATE+ВСЕ DLC+ОНЛАЙН всего за 499р. 349 руб. (супер цена). Внимание количество ограничено!!!

iTunes

1+1

iTunes

мы

iTunes

1

iTunes

Чернобыль

iTunes

Ральф против интернета

Лицензия

ПШазам

Лицензия

Игра престолов

Лицензия

30
pack

ВАЖНО

!!Акция!!

Alien_RageХит недели

RePack

Resident Evil 21

ИГРА 18+

pack

RePack

Metro:Exodus

!!Акция!!

Alien_Rage

RePack

fifa19

RePack

Assassins Creed: Odyssey

RePack

NEED FOR SPEED™ PAYBACK

3 сезон

9 сезон

Бесстыжие 9 сезон

Все сериалы

все сериалы на PB.wtf

RePack

FAR CRY 5
Ребята, катастрофически не хватает 1900р. для оплаты серверов за Октябрь (всвязи с блокировками трафик упал в 3 раза), 1-2р., выручайте.
  

Би-2 - Горизонт событий [2017, Rock, UHD BDRemux 2160p] pb.wtf

Би-2 - Горизонт событий через торрент pb.wtf

Раздают: 1 [ 5 KB/s ]
Размер: 23.18 GB | Добавлен: 11 д. назад | Торрент скачан:13 раз
Скачать  

02-11-2019 06:52 Би-2 - Горизонт событий Скачать торрент  

Би-2 - Горизонт событий
Год выпуска: 2017
Страна: Россия
Жанр: Rock
Продолжительность: 02:03:28
Перевод: Оригинальный
Субтитры: отсутствуют

Описание: 25 ноября 2017 г. группа БИ-2 отыграла концерт на "ВТБ-Арене" (Москва). В рамках мероприятия зрителю был презентован вышедший в конце сентября новый альбом "Горизонт событий", а также исполнены другие замечательные хиты группы. Красочное световизуальное шоу и энергетика самих музыкантов были зафиксированы с помощью ультрасовременной профессиональной системы камер и микрофонов, а команда мастеров во главе с Даниилом Сальховым оформила отснятый материал в наилучшем презентабельном виде, представив публике этот замечательный фильм-концерт.

Качество: UHD BDRemux 2160p
Формат: MKV

Видео: MPEG-4 AVC, 26 Мбит/с, 3840х2160, 25 кадр/с, 8 бит
Аудио#1: Русский (AC3, 6 ch, 448 Кбит/с)
Аудио#2: Русский (AAC, 6 ch, 317 Кбит/с)
Аудио#3: Русский (AAC, 2 ch, 128 Кбит/с)
01. Лётчик
02. Чёрное Солнце
03. Тема века
04. Детство
05. Молитва
06. Вечная призрачная встречная
07. Философский камень
08. Лайки
09. Виски (feat. John Grant)
10. Мой рок-н-ролл
11. Алиса (памяти А. Ротаня)
12. Пора возвращаться домой
13. Компромисс
14. Скользкие улицы
15. Варвара
16. Моя любовь
17. Пофигу
18. Родина
19. Drum solo
20. Сердце
21. Полковнику никто не пишет
22. Серебро

скриншот  скриншот  скриншот  

Общее
Уникальный идентификатор : 283265426856765452487939264071566926965 (0xD51AEFD0C4CA1A8D19167A6D36C4A475)
Полное имя : D:\БИ-2.Горизонт событий LIVE.2160p.Fatum200.mkv
Формат : Matroska
Версия формата : Version 4 / Version 2
Размер файла : 23,2 Гбайт
Продолжительность : 2 ч. 3 м.
Режим общего битрейта : Переменный
Общий поток : 26,9 Мбит/сек
Дата кодирования : UTC 2019-03-29 05:26:19
Программа кодирования : mkvmerge v32.0.0 ('Astral Progressions') 64-bit
Библиотека кодирования : libebml v1.3.7 + libmatroska v1.5.0

Видео
Идентификатор : 1
Формат : AVC
Формат/Информация : Advanced Video Codec
Профиль формата : Main@L5.1
Параметр CABAC формата : Да
Параметр RefFrames формата : 4 кадра
Идентификатор кодека : V_MPEG4/ISO/AVC
Продолжительность : 2 ч. 3 м.
Битрейт : 26.0 Мбит/сек
Ширина : 3840 пикселей
Высота : 2160 пикселей
Соотношение сторон : 16:9
Режим частоты кадров : Постоянный
Частота кадров : 25,000 кадров/сек
Цветовое пространство : YUV
Субдискретизация насыщенности : 4:2:0
Битовая глубина : 8 бит
Тип развёртки : Прогрессивная
Заголовок : UHD
Язык : English
Default : Да
Forced : Нет
Цветовой диапазон : Limited
Основные цвета : BT.709
Характеристики трансфера : BT.709
Коэффициенты матрицы : BT.709

Аудио #1
Идентификатор : 2
Формат : AAC
Формат/Информация : Advanced Audio Codec
Профиль формата : LC
Идентификатор кодека : A_AAC
Продолжительность : 2 ч. 3 м.
Каналы : 6 каналов
Расположение каналов : Front: L C R, Side: L R, LFE
Частота : 48,0 КГц
Частота кадров : 46,875 кадров/сек (1024 spf)
Метод сжатия : С потерями
Заголовок : 6 ch planeta.ru
Язык : Russian
Default : Нет
Forced : Нет

Аудио #2
Идентификатор : 3
Формат : AC-3
Формат/Информация : Audio Coding 3
Расширение режима : CM (complete main)
Параметр Endianness формата : Big
Идентификатор кодека : A_AC3
Продолжительность : 2 ч. 3 м.
Вид битрейта : Постоянный
Битрейт : 448 Кбит/сек
Каналы : 6 каналов
Расположение каналов : Front: L C R, Side: L R, LFE
Частота : 48,0 КГц
Частота кадров : 31,250 кадров/сек (1536 spf)
Метод сжатия : С потерями
Размер потока : 396 Мбайт (2%)
Заголовок : 6 ch 448 kbit 4k
Язык : Russian
Default : Да
Forced : Нет

Аудио #3
Идентификатор : 4
Формат : Vorbis
Параметр Floor формата : 1
Идентификатор кодека : A_VORBIS
Продолжительность : 2 ч. 3 м.
Вид битрейта : Переменный
Битрейт : 128 Кбит/сек
Каналы : 2 канала
Частота : 44,1 КГц
Метод сжатия : С потерями
Размер потока : 113 Мбайт (0%)
Заголовок : ac3 youtube
Программа кодирования : Google
Default : Нет
Forced : Нет

pb.wtf



Скачать Би-2 - Горизонт событий через торрент https://d.radikal.ru/d22/1904/76/1b1eb4e827fd.jpg Скачать фильм Би-2 - Горизонт событий [2017, Rock, UHD BDRemux 2160p]через торрент бесплантно в хорошем качестве Описание: 25 ноября 2017 г. группа БИ-2 отыграла концерт на "ВТБ-Арене" (Москва). В рамках мероприятия зрителю был презентован вышедший в ... 10 10 6
Торрент: Зарегистрирован [2019-11-02 06:52] · скачан: 13 раз
Статус: √ проверено
Размер: 23.18 GB
Как cкачать? Как скачать Би-2 - Горизонт событий через торрент | qTorrent

% Раздел Тема Автор DL S | L
Рок, Панк, Альтернатива (lossless) [ 478 MB ] Би-2 - Горизонт событий 2017 / FLAC / lossless / Рок bober100 Скачать
4 | 0
Рок, Панк, Альтернатива (mp3) [ 162 MB ] Би-2 - Горизонт событий 2017 / MP3 / 320 kbps / Рок bober100 Скачать
5 | 0


>> Регистрируемся здесь <<






Отзывы и комментарии о схеме читаем и пишем здесь: ---> Отзывы и комментарии о схеме

Новые благодарочки в телеграм довольных пользователей:
скриншот   скриншот   скриншот   скриншот   скриншот
    Дорогой пользователь! Огромная просьба, поблагодарите релизера, оцените раздачу и оставьте свои комментарий, если Вы скачали Би-2 - Горизонт событий через торрент бесплатно! Внесите свою лепту в развитие PiratBit!
    Комментировать посты могут только пользователи прошедшие не сложную регистрацию
    Показать сообщения:    

    Би-2 - Горизонт событий через торрент
    Скачать бесплатно Би-2 - Горизонт событий
    Би-2 - Горизонт событий скачать торрент
    Би-2 - Горизонт событий смотреть онлайн
    Cкачать фильм Би-2 - Горизонт событий бесплатно
    Би-2 - Горизонт событий скачать торрент в хорошем качестве
    Би-2 - Горизонт событий смотреть онлайн бесплатно в хорошем качестве


    Вы не можете начинать темы
    Вы не можете отвечать на сообщения
    Вы не можете редактировать свои сообщения
    Вы не можете удалять свои сообщения
    Вы не можете голосовать в опросах
    Вы не можете прикреплять файлы к сообщениям
    Вы можете скачивать файлы