2 сезон

iTunes

1 сезон

1

iTunes

iTunes

iTunes

1 сезон

RePack

30

ИГРА 18+

pack

ВАЖНО

!!Акция!!

Alien_RageХит недели

RePack

MK11
pack

Забери бонус

RePack

jed

!!Акция!!

Alien_Rage

RePack

fifa19

RePack

Assassins Creed: Odyssey

RePack

NEED FOR SPEED™ PAYBACK

4 сезон

9 сезон

Бесстыжие 9 сезон

Все сериалы

все сериалы на PB.wtf

RePack

FAR CRY 5
  

Рыцарь нашего времени / Серии: 1-4 из 4 (Вячеслав Лавров) [2019, Детектив, криминал, WEB-DL 1080p] pb.wtf

Рыцарь нашего времени через торрент pb.wtf

Размер: 6.49 GB | Добавлен: 11 мес. назад | Торрент скачан:36 раз
Скачать  

02-11-2019 17:45 Рыцарь нашего времени Скачать торрент  

Рыцарь нашего времени
Год выпуска: 2019
Страна: Россия
Жанр: Детектив, криминал
Продолжительность: ~ 00:50:00 серия
Субтитры: отсутствуют

Режиссер: Вячеслав Лавров



В ролях: Евгений Пронин, Алексей Вакулов, Светлана Смирнова-Кацагаджиева, Дмитрий Могучев, Денис Пьянов, Софья Присс, Кира Кауфман, Мария Жиганова, Владимир Петров, Евгений Капитонов

Описание: К Макару Илюшину и Сергею Бабкину обращается успешный бизнесмен Дмитрий Силотский, которого друзья с юности зовут Ланселотом. Он жалуется на эффект «жамэвю»: привычные вещи и места вдруг стали казаться ему изменившимися и чужими. Но поскольку сыщики не горят желанием расследовать психическое состояние клиента, он ставит перед ними другую задачу — найти его пропавшего помощника, Владимира Качкова. Детективы не очень хотят браться за этот заказ, особенно Бабкин, узнавший в супруге Ланселота свою первую жену. Но внезапно Силотский погибает, взорвавшись на своем мотоцикле прямо у подъезда Илюшина, и неизвестные люди угрожают сыщикам, требуя не соваться в это дело. Разумеется, после такого героев уже никто не остановит. Фильм снят по одноименному произведению Е. Михалковой

Качество: WEB-DL 1080p
Формат: MKV

Видео: 1920х1080 (16:9), 30 fps, AVC MPEG-4 (x264), High@L4 ~ 4800 kbps avg, 0.076 bit/pixel
Аудио: 48.0 kHz, AC3 Dolby Digital, 2/0 (L,R) ch, ~ 192 kbps
скриншот  скриншот  скриншот  скриншот  

Общее
Уникальный идентификатор : 224872865174040275880069975893929602018 (0xA92CF03FB1810A28BAFAAAEB1223ABE2)
Полное имя : G:Ricar.nashego.vremeni.2019.WEB-DL.(1080p.).ExKinoRayRicar.nashego.vremeni.E01.2019.WEB-DL.(1080p.).ExKinoRay.mkv
Формат : Matroska
Версия формата : Version 4 / Version 2
Размер файла : 1,56 Гбайт
Продолжительность : 44 м. 21 с.
Общий поток : 5047 Кбит/сек
Дата кодирования : UTC 2019-11-02 16:52:15
Программа кодирования : mkvmerge v6.9.1 ('Blue Panther') 64bit built on Apr 18 2014 18:23:38
Библиотека кодирования : libebml v1.3.0 + libmatroska v1.4.1

Видео
Идентификатор : 1
Формат : AVC
Формат/Информация : Advanced Video Codec
Профиль формата : High@L4
Настройки формата : CABAC / 4 Ref Frames
Параметр CABAC формата : Да
Параметр RefFrames формата : 4 кадра
Идентификатор кодека : V_MPEG4/ISO/AVC
Продолжительность : 44 м. 21 с.
Битрейт : 4755 Кбит/сек
Ширина : 1920 пикселей
Высота : 1080 пикселей
Соотношение сторон : 16:9
Режим частоты кадров : Постоянный
Частота кадров : 30,000 кадров/сек
Цветовое пространство : YUV
Субдискретизация насыщенности : 4:2:0
Битовая глубина : 8 бит
Тип развёртки : Прогрессивная
Бит/(Пиксели*Кадры) : 0.076
Размер потока : 1,47 Гбайт (94%)
Default : Да
Forced : Нет

Аудио
Идентификатор : 2
Формат : AC-3
Формат/Информация : Audio Coding 3
Идентификатор кодека : A_AC3
Продолжительность : 44 м. 21 с.
Вид битрейта : Постоянный
Битрейт : 192 Кбит/сек
Каналы : 2 канала
Расположение каналов : Front: L R
Частота : 48,0 КГц
Частота кадров : 31,250 кадров/сек (1536 SPF)
Битовая глубина : 16 бит
Метод сжатия : С потерями
Размер потока : 60,9 Мбайт (4%)
Язык : Russian
Default : Да
Forced : Нет

pb.wtf



Скачать Рыцарь нашего времени через торрент https://a.radikal.ru/a03/1911/d7/cfeef671a9d6.jpg Скачать фильм Рыцарь нашего времени через торрент бесплантно в хорошем качестве Описание: К Макару Илюшину и Сергею Бабкину обращается успешный бизнесмен Дмитрий Силотский, которого друзья с юности зовут Ланселотом. Он ... 10 10 2
Торрент: Зарегистрирован [2019-11-02 17:45] · скачан: 36 раз
Статус: √ проверено
Размер: 6.49 GB
Как cкачать? Как скачать Рыцарь нашего времени через торрент | qTorrent

% Раздел Тема Автор DL S | L
Наши сериалы [ 2.79 GB ] Рыцарь нашего времени / Серии: 1-4 из 4 [2019 экранизация WEBRip-AVC] aleksan55 Скачать
1 | 0
Наши сериалы [ 2.28 GB ] Рыцарь нашего времени / Серии: 1-4 из 4 [2019 WEB-DLRip-AVC] bober100 Скачать
1 | 0
Наши сериалы [ 2.68 GB ] Рыцарь нашего времени / Серии: 1-4 из 4 [2019 WEB-DLRip] bober100 Скачать
1 | 0

28-11-2019 20:33  

Отключить всю рекламу на сайте

02-11-2019 18:46 Рыцарь нашего времени Скачать торрент  

Автору спасибо,я так понимаю что это продолжение мини сериала "След лисицы на камнях"?pb.wtf



    Дорогой пользователь! Огромная просьба, поблагодарите релизера, оцените раздачу и оставьте свои комментарий, если Вы скачали Рыцарь нашего времени через торрент бесплатно! Внесите свою лепту в развитие PiratBit!
    Комментировать посты могут только пользователи прошедшие не сложную регистрацию
    Показать сообщения:    

    Рыцарь нашего времени через торрент
    Скачать бесплатно Рыцарь нашего времени
    Рыцарь нашего времени скачать торрент
    Рыцарь нашего времени смотреть онлайн
    Cкачать фильм Рыцарь нашего времени бесплатно
    Рыцарь нашего времени скачать торрент в хорошем качестве
    Рыцарь нашего времени смотреть онлайн бесплатно в хорошем качестве


    Вы не можете начинать темы
    Вы не можете отвечать на сообщения
    Вы не можете редактировать свои сообщения
    Вы не можете удалять свои сообщения
    Вы не можете голосовать в опросах
    Вы не можете прикреплять файлы к сообщениям
    Вы можете скачивать файлы