Ссылка на приватное зеркало нашего сайта всего за 1$. Внимание количество ограничено!!!

2 сезон

iTunes

1 сезон

1

2 сезон

2 сезон

iTunes

1 сезон

RePack

30

Новинка

ВАЖНО

ИГРА 18+

pack

RePack

MK11
pack

Забери бонус

RePack

jed

!!Акция!!

Alien_Rage

RePack

fifa19

RePack

Assassins Creed: Odyssey

RePack

NEED FOR SPEED™ PAYBACK

4 сезон

9 сезон

Бесстыжие 9 сезон

Все сериалы

все сериалы на PB.wtf

RePack

FAR CRY 5
  

Сердце и души / Heart and Souls (Рон Андервуд) [1993, фэнтези, драма, мелодрама, комедия, WEB-DLRip 720p] MVO + 2xAVO - KORSAR pb.wtf

Сердце и души через торрент pb.wtf

Размер: 5.54 GB | Добавлен: 1 год назад | Торрент скачан:18 раз
Скачать  

02-11-2019 18:26 Сердце и души Скачать торрент  

Сердце и души / Heart and Souls
Год выпуска: 1993
Страна: США
Жанр: Фэнтези, драма, мелодрама, комедия
Продолжительность: 01:43:15
Перевод: Профессиональный многоголосый, авторский одноголосый
Субтитры: Русские, английские
Режиссёр: Рон Андервуд
В ролях: Чарльз Гродин, Роберт Дауни мл., Альфре Вудард, Билл Кэлверт, Лиза Лукас, Дэвид Пэймер, Том Сайзмор, Кира Седжвик, Элизабет Шу, Ваня Грин, Джанет МакЛахлан, Стивен Клоусон, Джордж Магуайер, Марк Шейман, Ричард Портноу, Джейкоб Кеннер, Джанетт Колдуэлл, Эрик Ллойд
Описание: Смерть часто приходит неожиданно и человек не успевает сделать самое важное, то, без чего жизнь его не будет завершенной. Так случилось с четырьмя разными людьми, погибшими в 1959 году в автобусе, упавшем с моста в Сан-Франциско. Но у них был шанс совершить один, только один поступок уже после смерти — чтобы они покинули этот мир со спокойной душой.

rating

Качество: WEB-DLRip 720p
Формат: MKV
Видео: MPEG-4 AVC, 6090 Кбит/сек, 1280x720, 23.976 Кадр/сек
Аудио 1: Russian: AC3, 6 ch, 384 Кбит/сек - MVO, iTunes
Аудио 2: Russian: AC3, 6 ch, 384 Кбит/сек - AVO, А. Гаврилов
Аудио 3: Russian: AC3, 2 ch, 192 Кбит/сек - AVO, В. Горчаков
Аудио 4: English: AC3, 6 ch, 640 Кбит/сек - Оригинал

Релиз от:


• Исходник видео WEB-DL Amazon STARZ (периодически появляется логотип).
x264 [info]: frame I:957 Avg QP:14.23 size: 147671
x264 [info]: frame P:33081 Avg QP:17.09 size: 58734
x264 [info]: frame B:114492 Avg QP:19.51 size: 23167

=========================================

Общее
Уникальный идентификатор : 202797901669712652542166619679675259758 (0x989174849C0595F881EFB64DF8DA1B6E)
Полное имя : Сердце.и.души.1993.WEB-DLRip.720p.mkv
Формат : Matroska
Версия формата : Version 2
Размер файла : 5,54 Гбайт
Продолжительность : 1 ч. 43 м.
Общий поток : 7678 Кбит/сек
Дата кодирования : UTC 2017-08-21 07:03:57
Программа кодирования : mkvmerge v5.8.0 ('No Sleep / Pillow') built on Sep 2 2012 15:37:04
Библиотека кодирования : libebml v1.2.3 + libmatroska v1.3.0

Видео
Идентификатор : 1
Формат : AVC
Формат/Информация : Advanced Video Codec
Профиль формата : High@L4.1
Параметр CABAC формата : Да
Параметр ReFrames формата : 9 кадров
Идентификатор кодека : V_MPEG4/ISO/AVC
Продолжительность : 1 ч. 43 м.
Битрейт : 6090 Кбит/сек
Ширина : 1280 пикселей
Высота : 720 пикселей
Соотношение сторон : 16:9
Режим частоты кадров : Постоянный
Частота кадров : 23,976 (24000/1001) кадра/сек
Цветовое пространство : YUV
Субдискретизация насыщенности : 4:2:0
Битовая глубина : 8 бит
Тип развёртки : Прогрессивная
Бит/(Пиксели*Кадры) : 0.276
Размер потока : 4,28 Гбайт (77%)
Заголовок : RIP | MZMA
Библиотека кодирования : x264 core 148 r2638 7599210
Настройки программы : cabac=1 / ref=9 / deblock=1:-2:-2 / analyse=0x3:0x113 / me=umh / subme=11 / psy=1 / psy_rd=1.00:0.00 / mixed_ref=1 / me_range=48 / chroma_me=1 / trellis=2 / 8x8dct=1 / cqm=0 / deadzone=21,11 / fast_pskip=0 / chroma_qp_offset=-2 / threads=6 / lookahead_threads=1 / sliced_threads=0 / nr=0 / decimate=0 / interlaced=0 / bluray_compat=0 / constrained_intra=0 / bframes=16 / b_pyramid=2 / b_adapt=2 / b_bias=0 / direct=3 / weightb=1 / open_gop=0 / weightp=2 / keyint=250 / keyint_min=23 / scenecut=40 / intra_refresh=0 / rc_lookahead=60 / rc=2pass / mbtree=1 / bitrate=6090 / ratetol=1.0 / qcomp=0.60 / qpmin=0 / qpmax=69 / qpstep=4 / cplxblur=20.0 / qblur=0.5 / vbv_maxrate=50000 / vbv_bufsize=62500 / nal_hrd=none / filler=0 / ip_ratio=1.40 / aq=3:0.90
Язык : English
Default : Да
Forced : Нет
Цветовой диапазон : Limited
Основные цвета : BT.709
Характеристики трансфера : BT.709
Коэффициенты матрицы : BT.709

Аудио #1
Идентификатор : 2
Формат : AC-3
Формат/Информация : Audio Coding 3
Параметр Endianness формата : Big
Идентификатор кодека : A_AC3
Продолжительность : 1 ч. 43 м.
Вид битрейта : Постоянный
Битрейт : 384 Кбит/сек
Каналы : 6 каналов
Расположение каналов : Front: L C R, Side: L R, LFE
Частота : 48,0 КГц
Частота кадров : 31,250 кадров/сек (1536 spf)
Битовая глубина : 16 бит
Метод сжатия : С потерями
Размер потока : 284 Мбайт (5%)
Заголовок : MVO | iTunes
Язык : Russian
ServiceKind/String : Complete Main
Default : Да
Forced : Нет

Аудио #2
Идентификатор : 3
Формат : AC-3
Формат/Информация : Audio Coding 3
Параметр Endianness формата : Big
Идентификатор кодека : A_AC3
Продолжительность : 1 ч. 43 м.
Вид битрейта : Постоянный
Битрейт : 384 Кбит/сек
Каналы : 6 каналов
Расположение каналов : Front: L C R, Side: L R, LFE
Частота : 48,0 КГц
Частота кадров : 31,250 кадров/сек (1536 spf)
Битовая глубина : 16 бит
Метод сжатия : С потерями
Размер потока : 284 Мбайт (5%)
Заголовок : AVO | В. Горчаков
Язык : Russian
ServiceKind/String : Complete Main
Default : Нет
Forced : Нет

Аудио #3
Идентификатор : 4
Формат : AC-3
Формат/Информация : Audio Coding 3
Параметр Endianness формата : Big
Идентификатор кодека : A_AC3
Продолжительность : 1 ч. 43 м.
Вид битрейта : Постоянный
Битрейт : 192 Кбит/сек
Каналы : 2 канала
Расположение каналов : Front: L R
Частота : 48,0 КГц
Частота кадров : 31,250 кадров/сек (1536 spf)
Битовая глубина : 16 бит
Метод сжатия : С потерями
Задержка видео : 19 мс.
Размер потока : 142 Мбайт (3%)
Заголовок : AVO | А. Гаврилов
Язык : Russian
ServiceKind/String : Complete Main
Default : Нет
Forced : Нет

Аудио #4
Идентификатор : 5
Формат : E-AC-3
Формат/Информация : Enhanced Audio Coding 3
Параметр Endianness формата : Big
Идентификатор кодека : A_EAC3
Продолжительность : 1 ч. 43 м.
Вид битрейта : Постоянный
Битрейт : 640 Кбит/сек
Каналы : 6 каналов
Расположение каналов : Front: L C R, Side: L R, LFE
Частота : 48,0 КГц
Частота кадров : 187,500 кадров/сек (256 spf)
Метод сжатия : С потерями
Задержка видео : 16 мс.
Размер потока : 473 Мбайт (8%)
Заголовок : Original
Язык : English
ServiceKind/String : Complete Main
Default : Нет
Forced : Нет

Текст #1
Идентификатор : 6
Формат : UTF-8
Идентификатор кодека : S_TEXT/UTF8
Идентификатор кодека/Информация : UTF-8 Plain Text
Язык : Russian
Default : Нет
Forced : Нет

Текст #2
Идентификатор : 7
Формат : UTF-8
Идентификатор кодека : S_TEXT/UTF8
Идентификатор кодека/Информация : UTF-8 Plain Text
Язык : English
Default : Нет
Forced : Нет

Меню
00:00:00.000 : en:1
00:04:22.688 : en:2
00:07:34.688 : en:3
00:10:36.688 : en:4
00:13:50.688 : en:5
00:18:44.688 : en:6
00:25:24.688 : en:7
00:31:07.688 : en:8
00:34:19.688 : en:9
00:44:04.688 : en:10
00:49:21.688 : en:11
00:56:48.688 : en:12
01:05:10.688 : en:13
01:11:24.688 : en:14
01:14:41.688 : en:15
01:19:51.688 : en:16
01:28:43.688 : en:17
01:38:00.688 : en:18
pb.wtf



Скачать Сердце и души через торрент https://i5.imageban.ru/out/2019/11/02/7d57da8ab31fa947e3c03d9ef00a6768.png Скачать фильм Сердце и души через торрент бесплантно в хорошем качестве Описание: Смерть часто приходит неожиданно и человек не успевает сделать самое важное, то, без чего жизнь его не будет завершенной. Так ... 10 10 2
Торрент: Зарегистрирован [2019-11-02 18:26] · скачан: 18 раз
Статус: √ проверено
Размер: 5.54 GB
Как cкачать? Как скачать Сердце и души через торрент | qTorrent

28-11-2019 20:33  

Отключить всю рекламу на сайте

    Дорогой пользователь! Огромная просьба, поблагодарите релизера, оцените раздачу и оставьте свои комментарий, если Вы скачали Сердце и души через торрент бесплатно! Внесите свою лепту в развитие PiratBit!
    Комментировать посты могут только пользователи прошедшие не сложную регистрацию
    Показать сообщения:    

    Сердце и души через торрент
    Скачать бесплатно Сердце и души
    Сердце и души скачать торрент
    Сердце и души смотреть онлайн
    Cкачать фильм Сердце и души бесплатно
    Сердце и души скачать торрент в хорошем качестве
    Сердце и души смотреть онлайн бесплатно в хорошем качестве


    Вы не можете начинать темы
    Вы не можете отвечать на сообщения
    Вы не можете редактировать свои сообщения
    Вы не можете удалять свои сообщения
    Вы не можете голосовать в опросах
    Вы не можете прикреплять файлы к сообщениям
    Вы можете скачивать файлы