Ссылка на приватное зеркало всего за 1$. Внимание количество ограничено!!!

iTunes

iTunes

iTunes

1

iTunes

iTunes

iTunes

iTunes

iTunes

30
pack

Новость дня

ВАЖНО

!!Акция!!

Alien_RageХит недели

RePack

Resident Evil 21

ИГРА 18+

pack

RePack

jed

!!Акция!!

Alien_Rage

RePack

fifa19

RePack

Assassins Creed: Odyssey

RePack

NEED FOR SPEED™ PAYBACK

4 сезон

9 сезон

Бесстыжие 9 сезон

Все сериалы

все сериалы на PB.wtf

RePack

FAR CRY 5
  

ДНК: Стала женщиной в 11 лет [2019 г., Ток-шоу, SATRip] pb.wtf

ДНК: Стала женщиной в 11 лет через торрент pb.wtf

Размер: 597 MB | Добавлен: 6 мес. назад | Торрент скачан:12 раз
Скачать  

02-11-2019 21:45 ДНК: Стала женщиной в 11 лет Скачать торрент  

ДНК: Стала женщиной в 11 лет
Год выпуска: 2019

Страна: Россия

Выпущено: канал НТВ

Ведущий: Александр Колтовой

Жанр: Ток-шоу

Продолжительность: 00:50:57

Описание: На канале НТВ стартует новое остросоциальное ток-шоу «ДНК». На проекте соберутся семьи, для которых ДНК-тест — это единственная возможность закончить семейную войну, разобраться в перепутанных кровных узах, найти биологических родителей. Любой человек, попавший в трудную жизненную ситуацию, может стать героем программы и совершенно бесплатно сделать этот дорогостоящий тест.
Доп. информация: Эфир от 24.09.2019г.
Качество: SATRip
Формат: AVI
Видео: XviD, 1500 Кбит/с, 720x400
Аудио: Русский, MP3, 2 ch, 128 Кбит/с
Видео
Идентификатор : 0
Формат : MPEG-4 Visual
Профиль формата : Advanced Simple@L5
Настройки формата : BVOP2
Параметр BVOP формата : 2
Параметр QPel формата : Нет
Параметр GMC формата : Без точки перехода
Параметр матрицы формата : Default (H.263)
Идентификатор кодека : XVID
Идентификатор кодека/Подсказка : XviD
Продолжительность : 50 м. 56 с.
Битрейт : 1500 Кбит/сек
Ширина : 720 пикселей
Высота : 400 пикселей
Соотношение сторон : 16:9
Частота кадров : 25,000 кадров/сек
Цветовое пространство : YUV
Субдискретизация насыщенности : 4:2:0
Битовая глубина : 8 бит
Тип развёртки : Прогрессивная
Метод сжатия : С потерями
Бит/(Пиксели*Кадры) : 0.208
Размер потока : 547 Мбайт (92%)
Библиотека кодирования : XviD 1.2.1 (UTC 2008-12-04)

Аудио
Идентификатор : 1
Формат : MPEG Audio
Версия формата : Version 1
Профиль формата : Layer 3
Настройки формата : Joint stereo / MS Stereo
Идентификатор кодека : 55
Идентификатор кодека/Подсказка : MP3
Продолжительность : 50 м. 56 с.
Вид битрейта : Постоянный
Битрейт : 128 Кбит/сек
Каналы : 2 канала
Частота : 48,0 КГц
Частота кадров : 41,667 кадра/сек (1152 SPF)
Метод сжатия : С потерями
Размер потока : 46,6 Мбайт (8%)
Выравнивание : Соединение по промежуткам
Продолжительность промежутка : 40 мс. (1,00 видеокадр)
Время предзагрузки промежутка : 504 мс.
Библиотека кодирования : LAME3.99r
Настройки программы : -m j -V 4 -q 9 -lowpass 17 -b 128

скриншот   скриншот   скриншот   скриншот   скриншот  

pb.wtf



Скачать ДНК: Стала женщиной в 11 лет через торрент http://pic1.kartinco.top/images/12/kgw4e.jpg Скачать фильм ДНК: Стала женщиной в 11 лет [2019 г., Ток-шоу, SATRip]через торрент бесплантно в хорошем качестве Описание: На канале НТВ стартует новое остросоциальное ток-шоу «ДНК». На проекте соберутся семьи, для которых ДНК-тест — это единственная ... 10 10 1
Торрент: Зарегистрирован [2019-11-02 21:45] · скачан: 12 раз
Статус: √ проверено
Размер: 597 MB
Как cкачать? Как скачать ДНК: Стала женщиной в 11 лет через торрент | qTorrent

28-11-2019 20:33  

Отключить всю рекламу на сайте

02-11-2019 21:48 ДНК: Стала женщиной в 11 лет Скачать торрент  

В шоке от темы передачи.смотреть всемpb.wtf



02-11-2019 22:10 ДНК: Стала женщиной в 11 лет Скачать торрент  

ой ойpb.wtf



03-11-2019 04:55 ДНК: Стала женщиной в 11 лет Скачать торрент  

03-11-2019 05:27 ДНК: Стала женщиной в 11 лет Скачать торрент  

жениха хотела вот и залетала -ла ла ла ла лаpb.wtf



    Дорогой пользователь! Огромная просьба, поблагодарите релизера, оцените раздачу и оставьте свои комментарий, если Вы скачали ДНК: Стала женщиной в 11 лет через торрент бесплатно! Внесите свою лепту в развитие PiratBit!
    Комментировать посты могут только пользователи прошедшие не сложную регистрацию
    Показать сообщения:    

    ДНК: Стала женщиной в 11 лет через торрент
    Скачать бесплатно ДНК: Стала женщиной в 11 лет
    ДНК: Стала женщиной в 11 лет скачать торрент
    ДНК: Стала женщиной в 11 лет смотреть онлайн
    Cкачать фильм ДНК: Стала женщиной в 11 лет бесплатно
    ДНК: Стала женщиной в 11 лет скачать торрент в хорошем качестве
    ДНК: Стала женщиной в 11 лет смотреть онлайн бесплатно в хорошем качестве


    Вы не можете начинать темы
    Вы не можете отвечать на сообщения
    Вы не можете редактировать свои сообщения
    Вы не можете удалять свои сообщения
    Вы не можете голосовать в опросах
    Вы не можете прикреплять файлы к сообщениям
    Вы можете скачивать файлы