Ссылка на приватное зеркало нашего сайта всего за 1$. Внимание количество ограничено!!!

2 сезон

iTunes

1 сезон

1

iTunes

iTunes

iTunes

1 сезон

RePack

30

ИГРА 18+

pack

ВАЖНО

!!Акция!!

Alien_RageХит недели

RePack

MK11
pack

Забери бонус

RePack

jed

!!Акция!!

Alien_Rage

RePack

fifa19

RePack

Assassins Creed: Odyssey

RePack

NEED FOR SPEED™ PAYBACK

4 сезон

9 сезон

Бесстыжие 9 сезон

Все сериалы

все сериалы на PB.wtf

RePack

FAR CRY 5
  

Искушение наследством / Серии: 1-2 из 2 (Сергей Гиргель) [2019 г., Мелодрама, WEB-DLRip] pb.wtf

Искушение наследством через торрент pb.wtf

Размер: 2.27 GB | Добавлен: 11 мес. назад | Торрент скачан:44 раза
Скачать  

03-11-2019 01:25 Искушение наследством Скачать торрент  

Искушение наследством
  • Год выпуска: 2019
  • Страна: Россия
  • Жанр: Мелодрама
  • Продолжительность: ~ 01:30:00 (Серия)
  • Режиссер: Сергей Гиргель

  • В ролях: Дарья Щербакова, Дмитрий Пчела, Артём Осипов, Зоя Антонова, Дмитрий Мухин


  • Лена — дочь состоятельного бизнесмена. Отец растил свою принцессу как тепличный цветок. Лена никогда ни в чём не нуждалась и нигде не работала. Внезапная смерть отца всё изменила. Весь её благополучный мир оказался иллюзией — дом заложен, нужно платить по кредиту, а счета при этом заморожены. Богатая наследница, совсем недавно даже и не подозревавшая о существовании каких-либо жизненных проблем, вынуждена устроиться на работу простой официанткой. Но Лена пока и не догадывается, что её обожаемый муж Михаил погряз в долгах и готов на всё, чтобы заполучить её наследство…
  • Качество: WEB-DLRip
  • Формат: : AVI
  • Видео кодек: XviD
  • Аудио кодек: AC3
  • Видео: 1529 Кбит/сек, 720*400 (16:9), в 25,000 кадров/сек, MPEG-4 Visual (XviD)
  • Аудио: 192 Кбит/сек, 48,0 КГц, 16 бит, 2 канала, AC-3
    скриншот   скриншот   скриншот   скриншот   скриншот   скриншот   скриншот  
    скриншот  
    Общее
    Полное имя : F:\Искушение наследством .2019. WEBRip. Files-x\01. Искушение наследством .2019. WEBRip. Files-x.avi
    Формат : AVI
    Формат/Информация : Audio Video Interleave
    Размер файла : 1,13 Гбайт
    Продолжительность : 1 ч. 29 м.
    Общий поток : 1802 Кбит/сек
    Программа кодирования : VirtualDubMod 1.5.10.3 | www.virtualdub-fr.org || (build 2550/release)
    Библиотека кодирования : VirtualDubMod build 2550/release

    Видео
    Идентификатор : 0
    Формат : MPEG-4 Visual
    Профиль формата : Advanced Simple@L5
    Настройки формата : BVOP1 / Custom Matrix
    Параметр BVOP формата : 1
    Параметр QPel формата : Нет
    Параметр GMC формата : Без точки перехода
    Параметр матрицы формата : Выборочная
    Идентификатор кодека : XVID
    Идентификатор кодека/Подсказка : XviD
    Продолжительность : 1 ч. 29 м.
    Битрейт : 1529 Кбит/сек
    Ширина : 720 пикселей
    Высота : 400 пикселей
    Соотношение сторон : 16:9
    Частота кадров : 25,000 кадров/сек
    Цветовое пространство : YUV
    Субдискретизация насыщенности : 4:2:0
    Битовая глубина : 8 бит
    Тип развёртки : Прогрессивная
    Метод сжатия : С потерями
    Бит/(Пиксели*Кадры) : 0.212
    Размер потока : 981 Мбайт (85%)
    Библиотека кодирования : XviD 73

    Аудио
    Идентификатор : 1
    Формат : AC-3
    Формат/Информация : Audio Coding 3
    Коммерческое название : Dolby Digital
    Идентификатор кодека : 2000
    Продолжительность : 1 ч. 29 м.
    Вид битрейта : Постоянный
    Битрейт : 192 Кбит/сек
    Каналы : 2 канала
    ChannelLayout : L R
    Частота : 48,0 КГц
    Частота кадров : 31,250 кадров/сек (1536 SPF)
    Битовая глубина : 16 бит
    Метод сжатия : С потерями
    Размер потока : 123 Мбайт (11%)
    Выравнивание : Разделение по промежуткам
    ServiceKind/String : Complete Main
    Внимание! Раздача ведётся путём добавления новых серий; при каждом добавлении создаётся новый торрент. Чтобы начать докачку новой серии, пользователям необходимо сделать следующее:
    (1) остановить скачивание,
    (2) удалить старый торрент у себя из клиента (старые серии удалять не надо),
    (3) скачать новый торрент и запустить его у себя в клиенте вместо старого, при этом указать клиенту путь в старую папку куда и должно происходить скачивание новых серий.
    Ваш клиент при этом должен произвести хеширование (проверку) старой папки (если не производит сам - помогите ему сделать это), и будет докачивать только те серии которых у вас ещё нет. Старые серии при этом не удаляются, а продолжают раздаваться!
    Eсли вы уже удалили старые серии, то предотвратить повторную закачку старых серий можно, отжав галочку в соответствующих местах при запуске нового торрента. По возможности, желательно не удалять старые серии как можно дольше чтобы релизёр не столько продолжал раздавать старые серии, а смог сконцентрироваться на новых.

    pb.wtf



  • Скачать Искушение наследством через торрент http://pic1.kartinco.top/images/12/r5i9y.jpg Скачать фильм Искушение наследством через торрент бесплантно в хорошем качестве qw.png Лена — дочь состоятельного бизнесмена. Отец растил свою принцессу как тепличный цветок. Лена никогда ни в чём не нуждалась и ... 10 10 2
    Торрент: Зарегистрирован [2019-11-03 23:37] · скачан: 44 раз
    Статус: √ проверено
    Размер: 2.27 GB
    Как cкачать? Как скачать Искушение наследством через торрент | qTorrent

    % Раздел Тема Автор DL S | L
    Наши сериалы [ 9.61 GB ] Искушение наследством / Серии: 1-2 из 2 [2019 Мело HDTV 1080i] bober100 Скачать
    1 | 0

    28-11-2019 20:33  

    Отключить всю рекламу на сайте

      Дорогой пользователь! Огромная просьба, поблагодарите релизера, оцените раздачу и оставьте свои комментарий, если Вы скачали Искушение наследством через торрент бесплатно! Внесите свою лепту в развитие PiratBit!
      Комментировать посты могут только пользователи прошедшие не сложную регистрацию
      Показать сообщения:    

      Искушение наследством через торрент
      Скачать бесплатно Искушение наследством
      Искушение наследством скачать торрент
      Искушение наследством смотреть онлайн
      Cкачать фильм Искушение наследством бесплатно
      Искушение наследством скачать торрент в хорошем качестве
      Искушение наследством смотреть онлайн бесплатно в хорошем качестве


      Вы не можете начинать темы
      Вы не можете отвечать на сообщения
      Вы не можете редактировать свои сообщения
      Вы не можете удалять свои сообщения
      Вы не можете голосовать в опросах
      Вы не можете прикреплять файлы к сообщениям
      Вы можете скачивать файлы