новый адрес
Ссылка на приватное зеркало всего за 1$. Внимание количество ограничено!!!

iTunes

1+1

iTunes

мы

WEB-DL

1

iTunes

Чернобыль

iTunes

Ральф против интернета

Лицензия

ПШазам

Лицензия

Оно 2

Лицензия

30
pack

Вам бонус

ВАЖНО

!!Акция!!

Alien_RageХит недели

RePack

Resident Evil 21

ИГРА 18+

pack

RePack

jed

!!Акция!!

Alien_Rage

RePack

fifa19

RePack

Assassins Creed: Odyssey

RePack

NEED FOR SPEED™ PAYBACK

3 сезон

9 сезон

Бесстыжие 9 сезон

Все сериалы

все сериалы на PB.wtf

RePack

FAR CRY 5
Ребята, катастрофически не хватает 1900р. для оплаты серверов за Октябрь (всвязи с блокировками трафик упал в 3 раза), 1-2р., выручайте.
  

Момент безрассудства / The Reckless Moment (Макс Офюльс) [1949, фильм-нуар, драма, криминал, BDRip 720p by msltel] AVO pb.wtf

Момент безрассудства через торрент pb.wtf

Раздают: 1 [ 0 KB/s ]
Размер: 2.8 GB | Добавлен: 1 мес. 3 д. назад | Торрент скачан:1 раз
Скачать  

03-11-2019 11:09 Момент безрассудства Скачать торрент  

Название: Момент безрассудства
Оригинальное название: The Reckless Moment
Год выпуска: 1949
Страна: США
Жанр: фильм-нуар, драма, криминал
Продолжительность: 01:22:03
Перевод: авторский

Режиссер: Макс Офюльс
В ролях: Джеймс Мэйсон, Джоан Беннетт, Джеральдин Брукс, Генри О`Нилл, Шепперд Страдвик, Дэвид Баир, Рой Робертс, Джесси Арнольд, Джек Бэйкер, Пэт Бартон

О фильме: Домохозяйка Люсия Харпер находит убитого мужчину, с которым встречалась её дочь. Она не знает, что предпринять и всячески старается скрыть труп, чтобы избежать скандала. Возмездие является в лице ирландца-подонка, который собирается её шантажировать, но неожиданно влюбляется и делает попытки сближения... По роману Элизабет Сэнкси Холдинг «Белая стена».



Качество: BDRip 720p
Формат: MKV
Видео: MPEG-4 AVC, 4507 Кбит/с, 1004x720
Аудио 1: русский, AC3, 192 kbps, 1 ch, 48 kHz [авторский, Юрий Медведев]
Аудио 2: английский, AC3, 192 kbps, 1 ch, 48 kHz [оригинал]
Субтитры: английские
Главы/чаптеры
Общее
Уникальный идентификатор : 241395404940793786293527315150722362580 (0xB59B105A864BF7A990F96360A930ECD4)
Полное имя : D:\Video\Момент безрассудства.1949.BDRip 720p by msltel.mkv
Формат : Matroska
Версия формата : Version 4
Размер файла : 2,80 Гбайт
Продолжительность : 1 ч. 22 м.
Общий поток : 4893 Кбит/сек
Название фильма : Rip by msltel
Дата кодирования : UTC 2019-11-03 02:51:47
Программа кодирования : mkvmerge v8.2.0 ('World of Adventure') 64bit
Библиотека кодирования : libebml v1.3.1 + libmatroska v1.4.2

Видео
Идентификатор : 1
Формат : AVC
Формат/Информация : Advanced Video Codec
Профиль формата : High@L4.1
Настройки формата : CABAC / 9 Ref Frames
Параметр CABAC формата : Да
Параметр RefFrames формата : 9 кадров
Идентификатор кодека : V_MPEG4/ISO/AVC
Продолжительность : 1 ч. 22 м.
Битрейт : 4507 Кбит/сек
Ширина : 1004 пикселя
Высота : 720 пикселей
Соотношение сторон : 1,394
Режим частоты кадров : Постоянный
Частота кадров : 23,976 (24000/1001) кадра/сек
Цветовое пространство : YUV
Субдискретизация насыщенности : 4:2:0
Битовая глубина : 8 бит
Тип развёртки : Прогрессивная
Бит/(Пиксели*Кадры) : 0.260
Размер потока : 2,58 Гбайт (92%)
Библиотека кодирования : x264 core 157 r2935 545de2f
Настройки программы : cabac=1 / ref=9 / deblock=1:-2:-2 / analyse=0x3:0x113 / me=umh / subme=11 / psy=1 / psy_rd=1.00:0.15 / mixed_ref=1 / me_range=32 / chroma_me=1 / trellis=2 / 8x8dct=1 / cqm=0 / deadzone=21,11 / fast_pskip=0 / chroma_qp_offset=-3 / threads=6 / lookahead_threads=1 / sliced_threads=0 / nr=0 / decimate=1 / interlaced=0 / bluray_compat=0 / constrained_intra=0 / bframes=7 / b_pyramid=2 / b_adapt=2 / b_bias=0 / direct=1 / weightb=1 / open_gop=0 / weightp=2 / keyint=230 / keyint_min=23 / scenecut=40 / intra_refresh=0 / rc_lookahead=40 / rc=crf / mbtree=1 / crf=22.3 / qcomp=0.60 / qpmin=0 / qpmax=69 / qpstep=4 / vbv_maxrate=50000 / vbv_bufsize=62500 / crf_max=0.0 / nal_hrd=none / filler=0 / ip_ratio=1.40 / aq=1:1.00
Язык : English
Default : Да
Forced : Нет

Аудио #1
Идентификатор : 2
Формат : AC-3
Формат/Информация : Audio Coding 3
Коммерческое название : Dolby Digital
Идентификатор кодека : A_AC3
Продолжительность : 1 ч. 22 м.
Вид битрейта : Постоянный
Битрейт : 192 Кбит/сек
Каналы : 1 канал
ChannelLayout : C
Частота : 48,0 КГц
Частота кадров : 31,250 кадров/сек (1536 SPF)
Метод сжатия : С потерями
Размер потока : 113 Мбайт (4%)
Заголовок : Юрий Медведев
Язык : Russian
ServiceKind/String : Complete Main
Default : Да
Forced : Нет

Аудио #2
Идентификатор : 3
Формат : AC-3
Формат/Информация : Audio Coding 3
Коммерческое название : Dolby Digital
Идентификатор кодека : A_AC3
Продолжительность : 1 ч. 22 м.
Вид битрейта : Постоянный
Битрейт : 192 Кбит/сек
Каналы : 1 канал
ChannelLayout : C
Частота : 48,0 КГц
Частота кадров : 31,250 кадров/сек (1536 SPF)
Метод сжатия : С потерями
Размер потока : 113 Мбайт (4%)
Заголовок : original
Язык : English
ServiceKind/String : Complete Main
Default : Нет
Forced : Нет

Текст
Идентификатор : 4
Формат : UTF-8
Идентификатор кодека : S_TEXT/UTF8
Идентификатор кодека/Информация : UTF-8 Plain Text
Продолжительность : 1 ч. 20 м.
Битрейт : 77 бит/сек
ElementCount : 1308
Размер потока : 45,8 Кбайт (0%)
Заголовок : английские
Язык : English
Default : Нет
Forced : Нет

Меню
00:00:00.000 : en:01
00:05:39.756 : en:02
00:16:57.808 : en:03
00:24:52.950 : en:04
00:35:20.368 : en:05
00:44:07.645 : en:06
00:49:59.288 : en:07
00:57:52.177 : en:08
01:05:22.335 : en:09
01:16:26.415 : en:10
pb.wtf



Скачать Момент безрассудства через торрент https://d.radikal.ru/d38/1911/52/ad8b41e13e48.jpg Скачать фильм Момент безрассудства через торрент бесплантно в хорошем качестве О фильме: Домохозяйка Люсия Харпер находит убитого мужчину, с которым встречалась её дочь. Она не знает, что предпринять и всячески ... 10 10 1
Торрент: Зарегистрирован [2019-11-03 11:09] · скачан: 1 раз
Статус: √ проверено
Размер: 2.8 GB
Как cкачать? Как скачать Момент безрассудства через торрент | qTorrent

% Раздел Тема Автор DL S | L
Арт-хаус и авторское кино [ 7.79 GB ] Момент безрассудства / The Reckless Moment [1949 фильм-нуар BDRip 1080p by msltel] AVO msltel Скачать
2 | 0
Арт-хаус и авторское кино [ 1.55 GB ] Момент безрассудства / The Reckless Moment [1949 фильм-нуар BDRip by msltel] AVO msltel Скачать
2 | 0

28-11-2019 20:33  

Отключить всю рекламу на сайте

    Дорогой пользователь! Огромная просьба, поблагодарите релизера, оцените раздачу и оставьте свои комментарий, если Вы скачали Момент безрассудства через торрент бесплатно! Внесите свою лепту в развитие PiratBit!
    Комментировать посты могут только пользователи прошедшие не сложную регистрацию
    Показать сообщения:    

    Момент безрассудства через торрент
    Скачать бесплатно Момент безрассудства
    Момент безрассудства скачать торрент
    Момент безрассудства смотреть онлайн
    Cкачать фильм Момент безрассудства бесплатно
    Момент безрассудства скачать торрент в хорошем качестве
    Момент безрассудства смотреть онлайн бесплатно в хорошем качестве


    Вы не можете начинать темы
    Вы не можете отвечать на сообщения
    Вы не можете редактировать свои сообщения
    Вы не можете удалять свои сообщения
    Вы не можете голосовать в опросах
    Вы не можете прикреплять файлы к сообщениям
    Вы можете скачивать файлы