1 сезон

1 сезон

iTunes

1

КиноПоиск HD

Кинопоиск HD

iTunes

13

1 сезон

RePack

30

Ultimate

ВАЖНО

ИГРА 18+

pack

RePack

MK11
pack

Легкие деньги

RePack

jed

RePack

fifa19

RePack

RDR2

RePack

NEED FOR SPEED™ PAYBACK

4 сезон

9 сезон

Бесстыжие 9 сезон

Все сериалы

все сериалы на PB.wtf

RePack

FAR CRY 5
  
Magnet ссылка

Уиллард / Willard (Глен Морган) [2003, ужасы, фантастика, триллер, драма, BDRip (AVC) by msltel] MVO, 3 x DVO pb.wtf

Уиллард через торрент pb.wtf

Размер: 2.81 GB | Добавлен: 1 год 5 мес. назад | Торрент скачан:28 раз
Скачать  

03-11-2019 11:49 Уиллард Скачать торрент  

Название: Уиллард
Оригинальное название: Willard
Год выпуска: 2003
Страна: США
Жанр: ужасы, фантастика, триллер, драма
Продолжительность: 01:40:29
Перевод: профессиональный многоголосый, профессиональный двухголосый

Режиссер: Глен Морган
В ролях: Криспин Гловер, Р. Ли Эрми, Лора Хэрринг, Джеки Барроуз, Ким МакКами, Уильям С. Тейлор, Эдвард Хорн, Гас Линч, Лаара Сэдик, Дэвид Паркер, Тай Олссон, Кристен Клоук

О фильме: Застенчивый и необщительный молодой человек по имени Уиллард постоянно живёт под давлением. Ему всё время приходится ухаживать за своей больной матерью, вечно находящейся в бреду, а его начальник мистер Мартин терроризирует и унижает морально на работе, которая Уилларду совершенно не приносит никакого удовольствия. И ещё у него абсолютно нет друзей и личной жизни. Но однажды, когда Уиллард в очередной раз ловил крыс в подвале своего большого старого дома, он поймал маленького крысёнка, который впоследствии стал единственным другом Уилларду. После ещё одного трудного дня на работе, сидя в подвале в компании крыс, Уиллард открывает для себя, что имеет способность не только понимать и говорить с крысами, но и заставлять их делать то, что скажет...



Качество: BDRip (AVC)
Формат: MKV
Видео: MPEG-4 AVC, 2277 Кбит/с, 1024x436
Аудио 1: русский, AC3, 192 kbps, 2 ch, 48 kHz [закадровый многоголосый, ТК Россия]
Аудио 2: русский, AC3, 448 kbps, 6 ch, 48 kHz [закадровый двухголосый, R5, Universal Pictures]
Аудио 3: русский, AC3, 448 kbps, 6 ch, 48 kHz [закадровый двухголосый, LDV (Анатолий Пашнин и дама)]
Аудио 4: русский, AC3, 192 kbps, 2 ch, 48 kHz [закадровый двухголосый, Роберти и Александр Власов]
Аудио 5: английский, AC3, 448 kbps, 6 ch, 48 kHz [оригинал]
Субтитры 1: русские
Субтитры 2: английские
Главы/чаптеры
Общее
Уникальный идентификатор : 211855184068145737639656351093604175713 (0x9F61D30479E73887B34B70A624734F61)
Полное имя : D:\Video\Уиллард.2003.BDRip (AVC) by msltel.mkv
Формат : Matroska
Версия формата : Version 4
Размер файла : 2,81 Гбайт
Продолжительность : 1 ч. 40 м.
Общий поток : 4005 Кбит/сек
Название фильма : Rip by msltel
Дата кодирования : UTC 2019-11-03 05:43:05
Программа кодирования : mkvmerge v8.2.0 ('World of Adventure') 64bit
Библиотека кодирования : libebml v1.3.1 + libmatroska v1.4.2

Видео
Идентификатор : 1
Формат : AVC
Формат/Информация : Advanced Video Codec
Профиль формата : High@L4.1
Настройки формата : CABAC / 9 Ref Frames
Параметр CABAC формата : Да
Параметр RefFrames формата : 9 кадров
Идентификатор кодека : V_MPEG4/ISO/AVC
Продолжительность : 1 ч. 40 м.
Битрейт : 2277 Кбит/сек
Ширина : 1024 пикселя
Высота : 436 пикселей
Соотношение сторон : 2,35:1
Режим частоты кадров : Постоянный
Частота кадров : 23,976 (24000/1001) кадра/сек
Цветовое пространство : YUV
Субдискретизация насыщенности : 4:2:0
Битовая глубина : 8 бит
Тип развёртки : Прогрессивная
Бит/(Пиксели*Кадры) : 0.213
Размер потока : 1,60 Гбайт (57%)
Библиотека кодирования : x264 core 157 r2935 545de2f
Настройки программы : cabac=1 / ref=9 / deblock=1:-2:-2 / analyse=0x3:0x113 / me=umh / subme=11 / psy=1 / psy_rd=1.00:0.15 / mixed_ref=1 / me_range=32 / chroma_me=1 / trellis=2 / 8x8dct=1 / cqm=0 / deadzone=21,11 / fast_pskip=0 / chroma_qp_offset=-3 / threads=6 / lookahead_threads=1 / sliced_threads=0 / nr=0 / decimate=1 / interlaced=0 / bluray_compat=0 / constrained_intra=0 / bframes=11 / b_pyramid=2 / b_adapt=2 / b_bias=0 / direct=1 / weightb=1 / open_gop=0 / weightp=2 / keyint=230 / keyint_min=23 / scenecut=40 / intra_refresh=0 / rc_lookahead=40 / rc=crf / mbtree=1 / crf=17.0 / qcomp=0.60 / qpmin=0 / qpmax=69 / qpstep=4 / vbv_maxrate=50000 / vbv_bufsize=62500 / crf_max=0.0 / nal_hrd=none / filler=0 / ip_ratio=1.40 / aq=1:1.00
Язык : English
Default : Да
Forced : Нет

Аудио #1
Идентификатор : 2
Формат : AC-3
Формат/Информация : Audio Coding 3
Коммерческое название : Dolby Digital
Идентификатор кодека : A_AC3
Продолжительность : 1 ч. 40 м.
Вид битрейта : Постоянный
Битрейт : 192 Кбит/сек
Каналы : 2 канала
ChannelLayout : L R
Частота : 48,0 КГц
Частота кадров : 31,250 кадров/сек (1536 SPF)
Метод сжатия : С потерями
Размер потока : 138 Мбайт (5%)
Заголовок : MVO ТК Россия
Язык : Russian
ServiceKind/String : Complete Main
Default : Да
Forced : Нет

Аудио #2
Идентификатор : 3
Формат : AC-3
Формат/Информация : Audio Coding 3
Коммерческое название : Dolby Digital
Идентификатор кодека : A_AC3
Продолжительность : 1 ч. 40 м.
Вид битрейта : Постоянный
Битрейт : 448 Кбит/сек
Каналы : 6 каналов
ChannelLayout : L R C LFE Ls Rs
Частота : 48,0 КГц
Частота кадров : 31,250 кадров/сек (1536 SPF)
Метод сжатия : С потерями
Размер потока : 322 Мбайт (11%)
Заголовок : DVO R5, Universal Pictures
Язык : Russian
ServiceKind/String : Complete Main
Default : Нет
Forced : Нет

Аудио #3
Идентификатор : 4
Формат : AC-3
Формат/Информация : Audio Coding 3
Коммерческое название : Dolby Digital
Идентификатор кодека : A_AC3
Продолжительность : 1 ч. 40 м.
Вид битрейта : Постоянный
Битрейт : 448 Кбит/сек
Каналы : 6 каналов
ChannelLayout : L R C LFE Ls Rs
Частота : 48,0 КГц
Частота кадров : 31,250 кадров/сек (1536 SPF)
Метод сжатия : С потерями
Размер потока : 322 Мбайт (11%)
Заголовок : DVO LDV (Анатолий Пашнин и дама)
Язык : Russian
ServiceKind/String : Complete Main
Default : Нет
Forced : Нет

Аудио #4
Идентификатор : 5
Формат : AC-3
Формат/Информация : Audio Coding 3
Коммерческое название : Dolby Digital
Идентификатор кодека : A_AC3
Продолжительность : 1 ч. 39 м.
Вид битрейта : Постоянный
Битрейт : 192 Кбит/сек
Каналы : 2 канала
ChannelLayout : L R
Частота : 48,0 КГц
Частота кадров : 31,250 кадров/сек (1536 SPF)
Метод сжатия : С потерями
Размер потока : 136 Мбайт (5%)
Заголовок : DVO (Роберти и Александр Власов)
Язык : Russian
ServiceKind/String : Complete Main
Default : Нет
Forced : Нет

Аудио #5
Идентификатор : 6
Формат : AC-3
Формат/Информация : Audio Coding 3
Коммерческое название : Dolby Digital
Идентификатор кодека : A_AC3
Продолжительность : 1 ч. 40 м.
Вид битрейта : Постоянный
Битрейт : 448 Кбит/сек
Каналы : 6 каналов
ChannelLayout : L R C LFE Ls Rs
Частота : 48,0 КГц
Частота кадров : 31,250 кадров/сек (1536 SPF)
Метод сжатия : С потерями
Размер потока : 322 Мбайт (11%)
Заголовок : original
Язык : English
ServiceKind/String : Complete Main
Default : Нет
Forced : Нет

Текст #1
Идентификатор : 7
Формат : UTF-8
Идентификатор кодека : S_TEXT/UTF8
Идентификатор кодека/Информация : UTF-8 Plain Text
Продолжительность : 1 ч. 35 м.
Битрейт : 50 бит/сек
ElementCount : 649
Размер потока : 35,0 Кбайт (0%)
Заголовок : русские
Язык : Russian
Default : Нет
Forced : Нет

Текст #2
Идентификатор : 8
Формат : UTF-8
Идентификатор кодека : S_TEXT/UTF8
Идентификатор кодека/Информация : UTF-8 Plain Text
Продолжительность : 1 ч. 37 м.
Битрейт : 31 бит/сек
ElementCount : 1016
Размер потока : 22,8 Кбайт (0%)
Заголовок : английские
Язык : English
Default : Нет
Forced : Нет

Меню
00:00:00.000 : :Глава 01
00:07:17.937 : :Глава 02
00:16:03.087 : :Глава 03
00:24:04.818 : :Глава 04
00:31:08.366 : :Глава 05
00:37:54.063 : :Глава 06
00:46:06.013 : :Глава 07
00:56:03.360 : :Глава 08
01:04:03.840 : :Глава 09
01:11:59.440 : :Глава 10
01:20:10.138 : :Глава 11
01:29:07.508 : :Глава 12
pb.wtf



Скачать Уиллард через торрент https://a.radikal.ru/a03/1911/05/5eb2a025370a.png Скачать фильм Уиллард через торрент бесплантно в хорошем качестве О фильме: Застенчивый и необщительный молодой человек по имени Уиллард постоянно живёт под давлением. Ему всё время приходится ухаживать за ... 10 10 2
Торрент: Зарегистрирован [2019-11-03 11:49] · скачан: 28 раз
Статус: √ проверено
Размер: 2.81 GB
Как cкачать? Как скачать Уиллард через торрент | UTorrent

% Раздел Тема Автор DL S | L
Фильмы [HD 720p, 1080p] (Хороший звук DUB, MVO) [ 10.8 GB ] Уиллард / Willard [2003 BDRip 1080p by msltel] MVO 3 x DVO msltel Скачать
1 | 0
Фильмы [HD 720p, 1080p] (Хороший звук DUB, MVO) [ 4.29 GB ] Уиллард / Willard [2003 BDRip 720p by msltel] MVO 3 x DVO msltel Скачать
1 | 0

28-11-2019 20:33  

Отключить всю рекламу на сайте

    Дорогой пользователь! Огромная просьба, поблагодарите релизера, оцените раздачу и оставьте свои комментарий, если Вы скачали Уиллард через торрент бесплатно! Внесите свою лепту в развитие PiratBit!
    Комментировать посты могут только пользователи прошедшие не сложную регистрацию
    Показать сообщения:    

    Уиллард через торрент
    Скачать бесплатно Уиллард
    Уиллард скачать торрент
    Уиллард смотреть онлайн
    Cкачать фильм Уиллард бесплатно
    Уиллард скачать торрент в хорошем качестве
    Уиллард смотреть онлайн бесплатно в хорошем качестве


    Вы не можете начинать темы
    Вы не можете отвечать на сообщения
    Вы не можете редактировать свои сообщения
    Вы не можете удалять свои сообщения
    Вы не можете голосовать в опросах
    Вы не можете прикреплять файлы к сообщениям
    Вы можете скачивать файлы