2 сезон

iTunes

MVO

1

2 сезон

iTunes

iTunes

1 сезон

RePack

30

Ultimate

ВАЖНО

ИГРА 18+

pack

RePack

MK11
pack

Легкие деньги

RePack

jed

RePack

fifa19

RePack

RDR2

RePack

NEED FOR SPEED™ PAYBACK

4 сезон

9 сезон

Бесстыжие 9 сезон

Все сериалы

все сериалы на PB.wtf

RePack

FAR CRY 5

Anonymous, доброй ночи, мы не успеваем собрать деньги на оплату серверов за декабрь и январь, помогите нам пожалуйста в это трудное время. В качестве благодарности мы отключим Вам всю рекламу на сайте (укажите свой ник в строку Ваше имя)!

×
  
Magnet ссылка

Бегущий по лезвию 2049 / Blade Runner 2049 (Дени Вильнёв) [2017, Драма, детектив, научная фантастика, UHD BDRemux 2160p] DUB [Лицензия] + 5xAVO + VO pb.wtf

Бегущий по лезвию 2049 через торрент pb.wtf

Раздают: 1 [ 0 KB/s ]
Размер: 76.33 GB | Добавлен: 1 год 2 мес. назад | Торрент скачан:92 раза
Скачать  

03-11-2019 14:09 Бегущий по лезвию 2049 Скачать торрент  

Бегущий по лезвию 2049 / Blade Runner 2049«The key to the future is finally unearthed»
Год выпуска: 2017
Страна: США, Великобритания, Канада
Жанр: Драма, детектив, научная фантастика, триллер
Продолжительность: 02:43:27
Перевод: Дублированный, авторский, любительский одноголосый
Субтитры: русские (forced, Blu-Ray, FOCS), английские

Режиссер: Дени Вильнёв
В ролях:

Райан Гослинг («K»), Харрисон Форд (Rick Deckard), Ана де Армас (Joi), Сильвия Хукс (Luv), Робин Райт (Lieutenant Joshi), Маккензи Дэвис (Mariette), Карла Юри (Dr. Ana Stelline), Ленни Джеймс (Mister Cotton), Дэйв Батиста (Sapper Morton), Джаред Лето (Niander Wallace), Давид Дастмалчян (Coco), Баркхад Абди (Doc Badger)
Описание:
В недалеком будущем мир населен людьми и репликантами, созданными выполнять самую тяжелую работу. Работа офицера полиции Кей — держать репликантов под контролем в условиях нарастающего напряжения… Пока он случайно не становится обладателем секретной информации, которая ставит под угрозу существование всего человечества. Желая найти ключ к разгадке, Кей решает разыскать Рика Декарда, бывшего офицера специального подразделения полиции Лос-Анджелеса, который бесследно исчез много лет назад...
Рейтинг:

Качество: UHD BDRemux 2160p
Формат: MKV
Видео: MPEG-H HEVC Video / 49512 kbps / 3840x2160 / 23.976 fps / 16:9 / Main 10 @ Level 5.1 @ High / 4:2:0 / 10 bits / HDR10 / BT.2020 /
Аудио 1: Russian AC3 / 5.1 / 48 kHz / 640 kbps / 16 bits |Dub, UHD Blu-Ray|
Аудио 2: Russian DTS-HD Master Audio / 5.1 / 48 kHz / 2224 kbps / 16 bits (DTS Core: 5.1 / 48 kHz / 1509 kbps / 16 bits) |Л. Володарский|
Аудио 3: Russian DTS-HD Master Audio / 5.1 / 48 kHz / 2224 kbps / 16 bits (DTS Core: 5.1 / 48 kHz / 1509 kbps / 16 bits) |Ю. Живов|
Аудио 4: Russian DTS-HD Master Audio / 5.1 / 48 kHz / 2224 kbps / 16 bits (DTS Core: 5.1 / 48 kHz / 1509 kbps / 16 bits) |Ю. Сербин|
Аудио 5: Russian AC3 / 5.1 / 48 kHz / 384 kbps / 16 bits |А. Гаврилов|
Аудио 6: Russian DTS-HD Master Audio / 5.1 / 48 kHz / 3854 kbps / 24 bits (DTS Core: 5.1 / 48 kHz / 1509 kbps / 24 bits) |Д. Есарев|
Аудио 7: Russian AC3 / 5.1 / 48 kHz / 448 kbps / 16 bits |Solod|
Аудио 8: English Dolby Atmos/TrueHD Audio / 7.1-Atmos / 48 kHz / 5237 kbps / 24-bit |original|
Аудио 9: English AC3 Core: 5.1 / 48 kHz / 640 kbps |original|
Навигация по главам: Есть

Общее
Уникальный идентификатор : 235813576762575459888848975147588269303 (0xB1680AFA0DA394E82388EBE209E234F7)
Полное имя : H:\UHD\Бегущий по лезвию 2049.2017.UHD.Blu-Ray.Remux.2160p.mkv
Формат : Matroska
Версия формата : Version 4
Размер файла : 76,3 Гбайт
Продолжительность : 2 ч. 43 м.
Режим общего битрейта : Переменный
Общий поток : 66,8 Мбит/сек
Дата кодирования : UTC 2019-11-03 08:10:01
Программа кодирования : mkvmerge v38.0.0 ('The Silent Type') 64-bit
Библиотека кодирования : libebml v1.3.9 + libmatroska v1.5.2
Attachments : poster.jpg

Видео
Идентификатор : 1
Формат : HEVC
Формат/Информация : High Efficiency Video Coding
Профиль формата : Main 10@L5.1@High
HDR_Format/String : SMPTE ST 2086, HDR10 compatible
Идентификатор кодека : V_MPEGH/ISO/HEVC
Продолжительность : 2 ч. 43 м.
Битрейт : 49,5 Мбит/сек
Ширина : 3840 пикселей
Высота : 2160 пикселей
Соотношение сторон : 16:9
Режим частоты кадров : Постоянный
Частота кадров : 23,976 (24000/1001) кадра/сек
Цветовое пространство : YUV
Субдискретизация насыщенности : 4:2:0 (Type 2)
Битовая глубина : 10 бит
Бит/(Пиксели*Кадры) : 0.249
Размер потока : 56,5 Гбайт (74%)
Язык : English
Default : Да
Forced : Нет
Цветовой диапазон : Limited
Основные цвета : BT.2020
Характеристики трансфера : PQ
Коэффициенты матрицы : BT.2020 non-constant
MasteringDisplay_ColorPrimaries : Display P3
MasteringDisplay_Luminance : min: 0.0050 cd/m2, max: 4000 cd/m2
MaxCLL : 457 cd/m2
MaxFALL : 179 cd/m2

Аудио #1
Идентификатор : 2
Формат : AC-3
Формат/Информация : Audio Coding 3
Коммерческое название : Dolby Digital
Идентификатор кодека : A_AC3
Продолжительность : 2 ч. 43 м.
Вид битрейта : Постоянный
Битрейт : 640 Кбит/сек
Каналы : 6 каналов
ChannelLayout : L R C LFE Ls Rs
Частота : 48,0 КГц
Частота кадров : 31,250 кадров/сек (1536 SPF)
Метод сжатия : С потерями
Размер потока : 748 Мбайт (1%)
Заголовок : Dub, UHD Blu-Ray
Язык : Russian
ServiceKind/String : Complete Main
Default : Да
Forced : Нет

Аудио #2
Идентификатор : 3
Формат : DTS XLL
Формат/Информация : Digital Theater Systems
Коммерческое название : DTS-HD Master Audio
Идентификатор кодека : A_DTS
Продолжительность : 2 ч. 43 м.
Вид битрейта : Переменный
Битрейт : 2224 Кбит/сек
Каналы : 6 каналов
ChannelLayout : C L R Ls Rs LFE
Частота : 48,0 КГц
Частота кадров : 93,750 кадра/сек (512 SPF)
Битовая глубина : 16 бит
Метод сжатия : Без потерь
Размер потока : 2,54 Гбайт (3%)
Заголовок : Л. Володарский
Язык : Russian
Default : Нет
Forced : Нет

Аудио #3
Идентификатор : 4
Формат : DTS XLL
Формат/Информация : Digital Theater Systems
Коммерческое название : DTS-HD Master Audio
Идентификатор кодека : A_DTS
Продолжительность : 2 ч. 43 м.
Вид битрейта : Переменный
Битрейт : 2226 Кбит/сек
Каналы : 6 каналов
ChannelLayout : C L R Ls Rs LFE
Частота : 48,0 КГц
Частота кадров : 93,750 кадра/сек (512 SPF)
Битовая глубина : 16 бит
Метод сжатия : Без потерь
Размер потока : 2,54 Гбайт (3%)
Заголовок : Ю. Живов
Язык : Russian
Default : Нет
Forced : Нет

Аудио #4
Идентификатор : 5
Формат : DTS XLL
Формат/Информация : Digital Theater Systems
Коммерческое название : DTS-HD Master Audio
Идентификатор кодека : A_DTS
Продолжительность : 2 ч. 43 м.
Вид битрейта : Переменный
Битрейт : 2243 Кбит/сек
Каналы : 6 каналов
ChannelLayout : C L R Ls Rs LFE
Частота : 48,0 КГц
Частота кадров : 93,750 кадра/сек (512 SPF)
Битовая глубина : 16 бит
Метод сжатия : Без потерь
Размер потока : 2,56 Гбайт (3%)
Заголовок : Ю. Сербин
Язык : Russian
Default : Нет
Forced : Нет

Аудио #5
Идентификатор : 6
Формат : AC-3
Формат/Информация : Audio Coding 3
Коммерческое название : Dolby Digital
Идентификатор кодека : A_AC3
Продолжительность : 2 ч. 43 м.
Вид битрейта : Постоянный
Битрейт : 384 Кбит/сек
Каналы : 6 каналов
ChannelLayout : L R C LFE Ls Rs
Частота : 48,0 КГц
Частота кадров : 31,250 кадров/сек (1536 SPF)
Метод сжатия : С потерями
Размер потока : 449 Мбайт (1%)
Заголовок : А. Гаврилов
Язык : Russian
ServiceKind/String : Complete Main
Default : Нет
Forced : Нет

Аудио #6
Идентификатор : 7
Формат : DTS XLL
Формат/Информация : Digital Theater Systems
Коммерческое название : DTS-HD Master Audio
Идентификатор кодека : A_DTS
Продолжительность : 2 ч. 43 м.
Вид битрейта : Переменный
Битрейт : 3854 Кбит/сек
Каналы : 6 каналов
ChannelLayout : C L R Ls Rs LFE
Частота : 48,0 КГц
Частота кадров : 93,750 кадра/сек (512 SPF)
Битовая глубина : 24 бит
Метод сжатия : Без потерь
Размер потока : 4,40 Гбайт (6%)
Заголовок : Д. Есарев
Язык : Russian
Default : Нет
Forced : Нет

Аудио #7
Идентификатор : 8
Формат : AC-3
Формат/Информация : Audio Coding 3
Коммерческое название : Dolby Digital
Идентификатор кодека : A_AC3
Продолжительность : 2 ч. 43 м.
Вид битрейта : Постоянный
Битрейт : 448 Кбит/сек
Каналы : 6 каналов
ChannelLayout : L R C LFE Ls Rs
Частота : 48,0 КГц
Частота кадров : 31,250 кадров/сек (1536 SPF)
Метод сжатия : С потерями
Размер потока : 524 Мбайт (1%)
Заголовок : Solod
Язык : Russian
ServiceKind/String : Complete Main
Default : Нет
Forced : Нет

Аудио #8
Идентификатор : 9
Формат : MLP FBA 16-ch
Формат/Информация : Meridian Lossless Packing FBA with 16-channel presentation
Коммерческое название : Dolby TrueHD with Dolby Atmos
Идентификатор кодека : A_TRUEHD
Продолжительность : 2 ч. 43 м.
Вид битрейта : Переменный
Битрейт : 4597 Кбит/сек
Максимальный битрейт : 5022 Кбит/сек
Каналы : 8 каналов
ChannelLayout : L R C LFE Ls Rs Lb Rb
Частота : 48,0 КГц
Частота кадров : 1200,000 кадров/сек (40 SPF)
Метод сжатия : Без потерь
Размер потока : 5,25 Гбайт (7%)
Язык : English
Default : Нет
Forced : Нет
NumberOfDynamicObjects : 11
BedChannelCount/String : 1 канал
BedChannelConfiguration : LFE

Аудио #9
Идентификатор : 10
Формат : AC-3
Формат/Информация : Audio Coding 3
Коммерческое название : Dolby Digital
Идентификатор кодека : A_AC3
Продолжительность : 2 ч. 43 м.
Вид битрейта : Постоянный
Битрейт : 640 Кбит/сек
Каналы : 6 каналов
ChannelLayout : L R C LFE Ls Rs
Частота : 48,0 КГц
Частота кадров : 31,250 кадров/сек (1536 SPF)
Метод сжатия : С потерями
Размер потока : 748 Мбайт (1%)
Язык : English
ServiceKind/String : Complete Main
Default : Нет
Forced : Нет

Текст #1
Идентификатор : 11
Формат : UTF-8
Идентификатор кодека : S_TEXT/UTF8
Идентификатор кодека/Информация : UTF-8 Plain Text
Продолжительность : 2 ч. 41 м.
Битрейт : 1 бит/сек
ElementCount : 34
Размер потока : 1,65 Кбайт (0%)
Заголовок : forced
Язык : Russian
Default : Да
Forced : Нет

Текст #2
Идентификатор : 12
Формат : UTF-8
Идентификатор кодека : S_TEXT/UTF8
Идентификатор кодека/Информация : UTF-8 Plain Text
Продолжительность : 2 ч. 41 м.
Битрейт : 39 бит/сек
ElementCount : 1050
Размер потока : 46,4 Кбайт (0%)
Заголовок : Blu-Ray
Язык : Russian
Default : Нет
Forced : Нет

Текст #3
Идентификатор : 13
Формат : UTF-8
Идентификатор кодека : S_TEXT/UTF8
Идентификатор кодека/Информация : UTF-8 Plain Text
Продолжительность : 2 ч. 33 м.
Битрейт : 45 бит/сек
ElementCount : 1017
Размер потока : 51,0 Кбайт (0%)
Заголовок : FOCS
Язык : Russian
Default : Нет
Forced : Нет

Текст #4
Идентификатор : 14
Формат : UTF-8
Идентификатор кодека : S_TEXT/UTF8
Идентификатор кодека/Информация : UTF-8 Plain Text
Продолжительность : 2 ч. 26 м.
Битрейт : 24 бит/сек
ElementCount : 972
Размер потока : 26,7 Кбайт (0%)
Язык : English
Default : Нет
Forced : Нет

Меню
00:00:00.000 : en:Chapter 01
00:12:36.172 : en:Chapter 02
00:23:29.116 : en:Chapter 03
00:37:00.885 : en:Chapter 04
00:42:50.234 : en:Chapter 05
00:49:24.503 : en:Chapter 06
00:58:35.553 : en:Chapter 07
01:04:10.638 : en:Chapter 08
01:15:47.251 : en:Chapter 09
01:25:12.482 : en:Chapter 10
01:36:15.060 : en:Chapter 11
01:50:54.773 : en:Chapter 12
02:01:36.789 : en:Chapter 13
02:08:40.379 : en:Chapter 14
02:16:42.319 : en:Chapter 15
02:27:46.941 : en:Chapter 16
pb.wtf



Скачать Бегущий по лезвию 2049 через торрент https://d.radikal.ru/d15/1908/56/f5705007cd31.png Скачать фильм Бегущий по лезвию 2049 через торрент бесплантно в хорошем качестве Описание: В недалеком будущем мир населен людьми и репликантами, созданными выполнять самую тяжелую работу. Работа офицера полиции Кей — ... 10 10 6
Торрент: Зарегистрирован [2019-11-03 14:09] · скачан: 92 раз
Статус: √ проверено
Размер: 76.33 GB
Как cкачать? Как скачать Бегущий по лезвию 2049 через торрент | UTorrent

% Раздел Тема Автор DL S | L
Ultra HD (UHD: 2K, 4K, 8K) — видео сверхвысокой чёткости [ 81.15 GB ] Бегущий по лезвию 2049 / Blade Runner 2049 [2017 UHD BDRemux 2160p] 2xAVO [Д.Есарев Ю.Живов] +DUB +DUB [] bober100 Скачать
2 | 0

28-11-2019 20:33  

Отключить всю рекламу на сайте

    Дорогой пользователь! Огромная просьба, поблагодарите релизера, оцените раздачу и оставьте свои комментарий, если Вы скачали Бегущий по лезвию 2049 через торрент бесплатно! Внесите свою лепту в развитие PiratBit!
    Комментировать посты могут только пользователи прошедшие не сложную регистрацию
    Показать сообщения:    

    Бегущий по лезвию 2049 через торрент
    Скачать бесплатно Бегущий по лезвию 2049
    Бегущий по лезвию 2049 скачать торрент
    Бегущий по лезвию 2049 смотреть онлайн
    Cкачать фильм Бегущий по лезвию 2049 бесплатно
    Бегущий по лезвию 2049 скачать торрент в хорошем качестве
    Бегущий по лезвию 2049 смотреть онлайн бесплатно в хорошем качестве


    Вы не можете начинать темы
    Вы не можете отвечать на сообщения
    Вы не можете редактировать свои сообщения
    Вы не можете удалять свои сообщения
    Вы не можете голосовать в опросах
    Вы не можете прикреплять файлы к сообщениям
    Вы можете скачивать файлы