Ссылка на приватное зеркало нашего сайта всего за 1$. Внимание количество ограничено!!!

2 сезон

iTunes

1 сезон

1

2 сезон

2 сезон

iTunes

1 сезон

RePack

30

Ultimate

ВАЖНО

ИГРА 18+

pack

RePack

MK11
pack

Забери бонус

RePack

jed

!!Акция!!

Alien_Rage

RePack

fifa19

RePack

Assassins Creed: Odyssey

RePack

NEED FOR SPEED™ PAYBACK

4 сезон

9 сезон

Бесстыжие 9 сезон

Все сериалы

все сериалы на PB.wtf

RePack

FAR CRY 5
  

Побег из сумасшедшего дома: История Нелли Блай / Escaping the Madhouse: The Nellie Bly Story (Карен Монкрифф) [2019, Триллер, WEB-DL 720p] MVO [HDRezka Studio] pb.wtf

Побег из сумасшедшего дома: История Нелли Блай через торрент pb.wtf

Размер: 2.19 GB | Добавлен: 1 год назад | Торрент скачан:93 раза
Скачать  

03-11-2019 16:49 Побег из сумасшедшего дома: История Нелли Блай Скачать торрент  

Побег из сумасшедшего дома: История Нелли Блай / Escaping the Madhouse: The Nellie Bly Story
Год выпуска: 2019
Страна: США
Жанр: Триллер
Продолжительность: 01:28:21
Перевод: Профессиональный (многоголосый) | HDRezka Studio
Субтитры: Русские (форсированные), английские (full, SDH)

Режиссер: Карен Монкрифф

rating

В ролях: Кристина Риччи, Джудит Лайт, Джош Боуман, Аня Савчич, Никки Дювал, Лорен Кокрейн, Кэтлин Галлахер, Анджела Нарт, Джохис Намвира, Джим Кирби, Мюриэль Хог, Джойс Кренц, Роберт Боргес, Шон Скин, Карен Туса

Описание: События разворачиваются в 1887 году в Нью-Йорке. Молодая журналистка Нелли Блай оказывается в психиатрической лечебнице, которая расположена на острове возле Манхэттена. При этом девушка находится в здравом уме, так как симулировала шизофрению, чтобы узнать какие ужасы творятся за стенами больницы. Компанию ей составляют бедные проститутки, пожилые женщины с деменцией и иммигрантки, которые оказались здесь потому, что не могут говорить по-английски — все они считаются сумасшедшими. Вот только Нелли, столкнувшаяся со зверствами и жестокостью персонала, совершенно не предполагала, что выбраться из этого места будет намного сложнее, чем попасть...

Качество: WEB-DL 720p
Формат: MKV

Видео: MPEG-4 AVC, 3096 Kбит/с, 1280x720, 23.976 кадр/с
Аудио#1: Русский (АС3, 2 ch, 224 Кбит/с, 48.0 KHz) Профессиональный (многоголосый, закадровый) HDRezka Studio
Аудио#2: Английский (E-АС3, 2 ch, 224 Кбит/с, 48.0 KHz)
скриншот  скриншот  скриншот  скриншот  

General
Unique ID : 172078449593048449639497708982684764188 (0x81751A983D711CC5BF176772EBAE481C)
Complete name : I:Escaping.The.Madhouse.2019.720p.WEB-DL-DBS.Rus.Eng.mkv
Format : Matroska
Format version : Version 4
File size : 2.19 GiB
Duration : 1 h 28 min
Overall bit rate : 3 547 kb/s
Encoded date : UTC 2019-09-13 15:22:37
Writing application : mkvmerge v9.2.0 ('Photograph') 64bit
Writing library : libebml v1.3.3 + libmatroska v1.4.4

Video
ID : 1
Format : AVC
Format/Info : Advanced Video Codec
Format profile : High@L3.1
Format settings : CABAC / 4 Ref Frames
Format settings, CABAC : Yes
Format settings, Reference : 4 frames
Codec ID : V_MPEG4/ISO/AVC
Duration : 1 h 28 min
Bit rate mode : Constant
Bit rate : 3 096 kb/s
Nominal bit rate : 6 000 kb/s
Width : 1 280 pixels
Height : 720 pixels
Display aspect ratio : 16:9
Frame rate mode : Constant
Frame rate : 23.976 (24000/1001) FPS
Color space : YUV
Chroma subsampling : 4:2:0
Bit depth : 8 bits
Scan type : Progressive
Bits/(Pixel*Frame) : 0.140
Stream size : 1.91 GiB (87%)
Title : -DBS
Language : English
Default : Yes
Forced : No
Color range : Limited
Color primaries : BT.709
Transfer characteristics : BT.709
Matrix coefficients : BT.709

Audio #1
ID : 2
Format : AC-3
Format/Info : Audio Coding 3
Commercial name : Dolby Digital
Codec ID : A_AC3
Duration : 1 h 28 min
Bit rate mode : Constant
Bit rate : 224 kb/s
Channel(s) : 2 channels
Channel layout : L R
Sampling rate : 48.0 kHz
Frame rate : 31.250 FPS (1536 SPF)
Bit depth : 16 bits
Compression mode : Lossy
Stream size : 142 MiB (6%)
Title : MVO HDRezka
Language : Russian
Service kind : Complete Main
Default : Yes
Forced : No

Audio #2
ID : 3
Format : E-AC-3
Format/Info : Enhanced AC-3
Commercial name : Dolby Digital Plus
Codec ID : A_EAC3
Duration : 1 h 28 min
Bit rate mode : Constant
Bit rate : 224 kb/s
Channel(s) : 2 channels
Channel layout : L R
Sampling rate : 48.0 kHz
Frame rate : 31.250 FPS (1536 SPF)
Compression mode : Lossy
Stream size : 142 MiB (6%)
Title : English
Language : English
Service kind : Complete Main
Default : No
Forced : No

Text #1
ID : 4
Format : UTF-8
Codec ID : S_TEXT/UTF8
Codec ID/Info : UTF-8 Plain Text
Duration : 1 h 27 min
Bit rate : 3 b/s
Count of elements : 17
Stream size : 2.03 KiB (0%)
Title : Forced
Language : Russian
Default : Yes
Forced : Yes

Text #2
ID : 5
Format : UTF-8
Codec ID : S_TEXT/UTF8
Codec ID/Info : UTF-8 Plain Text
Duration : 1 h 25 min
Bit rate : 69 b/s
Count of elements : 1423
Stream size : 43.2 KiB (0%)
Title : English
Language : English
Default : No
Forced : No

Text #3
ID : 6
Format : UTF-8
Codec ID : S_TEXT/UTF8
Codec ID/Info : UTF-8 Plain Text
Duration : 1 h 27 min
Bit rate : 69 b/s
Count of elements : 1535
Stream size : 44.6 KiB (0%)
Title : English SDH
Language : English
Default : No
Forced : No

pb.wtf



Скачать Побег из сумасшедшего дома: История Нелли Блай через торрент https://img15.lostpic.net/2019/09/14/4fba8af35fb1207b67840d0aaf6c4784.png Скачать фильм Побег из сумасшедшего дома: История Нелли Блай через торрент бесплантно в хорошем качестве Описание: События разворачиваются в 1887 году в Нью-Йорке. Молодая журналистка Нелли Блай оказывается в психиатрической лечебнице, которая ... 10 10 4
Торрент: Зарегистрирован [2019-11-03 16:49] · скачан: 93 раз
Статус: T временная
Размер: 2.19 GB
Как cкачать? Как скачать Побег из сумасшедшего дома: История Нелли Блай через торрент | qTorrent

% Раздел Тема Автор DL S | L
T Фильмы 2019-2020 [DVDrip, WEB-DLRip, HDrip] (DUB, MVO) [ 1.64 GB ] Побег из сумасшедшего дома: История Нелли Блай / Escaping the Madhouse: The Nellie Bly Story [2019 WEB-DLRip-AVC] MVO [HDRezka Studio] - OllanDGroup Skandar2019 Скачать
1 | 0
T Фильмы (WEB-DL 720p, 1080p) [ 5.54 GB ] Побег из сумасшедшего дома: История Нелли Блай / Escaping the Madhouse: The Nellie Bly Story [2019 WEB-DL 1080p] MVO [HDRezka Studio] bober100 Скачать
1 | 0

28-11-2019 20:33  

Отключить всю рекламу на сайте

    Дорогой пользователь! Огромная просьба, поблагодарите релизера, оцените раздачу и оставьте свои комментарий, если Вы скачали Побег из сумасшедшего дома: История Нелли Блай через торрент бесплатно! Внесите свою лепту в развитие PiratBit!
    Комментировать посты могут только пользователи прошедшие не сложную регистрацию
    Показать сообщения:    

    Побег из сумасшедшего дома: История Нелли Блай через торрент
    Скачать бесплатно Побег из сумасшедшего дома: История Нелли Блай
    Побег из сумасшедшего дома: История Нелли Блай скачать торрент
    Побег из сумасшедшего дома: История Нелли Блай смотреть онлайн
    Cкачать фильм Побег из сумасшедшего дома: История Нелли Блай бесплатно
    Побег из сумасшедшего дома: История Нелли Блай скачать торрент в хорошем качестве
    Побег из сумасшедшего дома: История Нелли Блай смотреть онлайн бесплатно в хорошем качестве


    Вы не можете начинать темы
    Вы не можете отвечать на сообщения
    Вы не можете редактировать свои сообщения
    Вы не можете удалять свои сообщения
    Вы не можете голосовать в опросах
    Вы не можете прикреплять файлы к сообщениям
    Вы можете скачивать файлы